Новая Фабрика звезд [1-7 выпуск] (2024) WEBRip 720p от Files-x

Reply to topic
 
Author Message

bond74 ®

Gender: Male

Longevity: 5 years 5 months

Posts: 2365

Post 05-Mar-2024 23:47

[Quote]

Новая Фабрика звезд Год выпуска: 2024
Жанр:ТВ-шоу, музыкальный, вокальный
Выпущено: Россия, ТНТ
Ведущий: Регина Тодоренко, Тимур Родригез, Анна Хилькевич
Описание: Музыкальный проект, в котором молодые и талантливые исполнители от 16 до 21 года получают шанс проявить себя. Участники шоу берут уроки вокала и танца у лучших преподавателей российской эстрады, записывают собственные песни и учатся быть настоящими звездами под руководством известных музыкантов и продюсеров. «Новая Фабрика звезд» - это ремейк популярного реалити-шоу «Фабрика звезд», выходившего в эфир в 2002-2017 годах и «воспитавшего» таких звезд, как Тимати, Стаса Пьеху, Полину Гагарину, Зару, Дмитрия Колдуна, Прохора Шаляпина и других.
Качество: WEBRip 720p
Видео: MPEG-4 AVC, ~ 5365 Кбит/с, 1280x720, 25 кадр/с
Аудио: AC3, 2 ch, 192 Кбит/с
Продолжительность: 7 x ~ 02:07:57
Перевод: Не требуется
Субтитры: Нет

Скриншоты



MediaInfo

General
Unique ID : 193043599614705838759840353983739052959 (0x913AD84BD3ADCAFEB5C1DF318895C39F)
Complete name : C:\ШОУ\Новая Фабрика звезд.2024.WEB-DL 720p.Files-x\01. Новая Фабрика звезд.2024.WEB-DL 720p.Files-x.mkv
Format : Matroska
Format version : Version 4
File size : 4.94 GiB
Duration : 2 h 7 min
Overall bit rate mode : Variable
Overall bit rate : 5 558 kb/s
Frame rate : 25.000 FPS
Encoded date : 2024-03-03 18:15:22 UTC
Writing application : mkvmerge v7.8.0 ('River Man') 32bit built on Apr 3 2015 12:11:22
Writing library : libebml v1.3.1 + libmatroska v1.4.2
Video
ID : 1
Format : AVC
Format/Info : Advanced Video Codec
Format profile : High@L4.1
Format settings : CABAC / 4 Ref Frames
Format settings, CABAC : Yes
Format settings, Reference frames : 4 frames
Format settings, GOP : M=4, N=50
Codec ID : V_MPEG4/ISO/AVC
Duration : 2 h 7 min
Bit rate mode : Variable
Bit rate : 5 365 kb/s
Maximum bit rate : 5 000 kb/s
Width : 1 280 pixels
Height : 720 pixels
Display aspect ratio : 16:9
Frame rate mode : Constant
Frame rate : 25.000 FPS
Color space : YUV
Chroma subsampling : 4:2:0
Bit depth : 8 bits
Scan type : Progressive
Bits/(Pixel*Frame) : 0.233
Stream size : 4.77 GiB (97%)
Default : Yes
Forced : No
Color range : Limited
Color primaries : BT.709
Transfer characteristics : BT.709
Audio
ID : 2
Format : AC-3
Format/Info : Audio Coding 3
Commercial name : Dolby Digital
Codec ID : A_AC3
Duration : 2 h 7 min
Bit rate mode : Constant
Bit rate : 192 kb/s
Channel(s) : 2 channels
Channel layout : L R
Sampling rate : 44.1 kHz
Frame rate : 28.711 FPS (1536 SPF)
Compression mode : Lossy
Delay relative to video : -120 ms
Stream size : 175 MiB (3%)
Service kind : Complete Main
Default : Yes
Forced : No

Внимание! Раздача ведётся путём добавления новых серий

Раздача ведётся путём добавления новых серий, при каждом добавлении создаётся новый торрент. Чтобы начать докачку новой серии, пользователям необходимо сделать следующее:
- Остановить скачивание.
- Удалить старый торрент у себя из клиента (старые серии удалять не надо).
- Скачать новый торрент и запустить его у себя в клиенте вместо старого, при этом указать клиенту путь в старую папку куда и должно происходить скачивание новых серий.
Ваш клиент при этом должен произвести хеширование (проверку) старой папки (если не производит сам - помогите ему сделать это), и будет докачивать только те серии которых у вас ещё нет. Старые серии при этом не удаляются, а продолжают раздаваться!
Релиз от:

Release was prepared by RG Files-x

Related releases "Новая Фабрика звезд" (1):
Added Topic title Size
22 Apr 24  Новая Фабрика звезд [1-7 выпуск] (2024) WEBRip от Files-x 9.73 GB
Find all related releases Новая Фабрика звезд
[Profile] [PM]
Display posts:    
Reply to topic

Current time is: 24-Apr 09:37

All times are UTC + 3



You cannot post new topics in this forum
You cannot reply to topics in this forum
You cannot edit your posts in this forum
You cannot delete your posts in this forum
You cannot vote in polls in this forum
You cannot attach files in this forum
You cannot download files in this forum