Выживалити. Миссия Альфа [1-8 выпуск из 8] (2024) WEBRip 720p от Files-x

Reply to topic
 
Author Message

bond74 ®

Gender: Male

Longevity: 5 years 6 months

Posts: 2399

Post 05-Mar-2024 23:54

[Quote]

Выживалити. Миссия Альфа Год выпуска: 2024
Жанр:ТВ-шоу
Выпущено: Россия, Пятница
Ведущий: Вадим Демчог
Описание: Участники «Последнего героя», «Битвы экстрасенсов», «Танцев», «Выжить в Дубае», «Пацанок» и других российских реалити встретятся в «Выживалити». Им предстоит прыгать с вертолета, выбираться из тонущей машины, подбирать коды от замков и проходить другие экстремальные испытания не только на физическую силу, но и выбираться из психологических ловушек, принимая решения. Но кону - 10 миллионов рублей.
Качество: WEBRip 720p
Видео:MPEG-4 AVC, ~ 3000 Кбит/с, 1280x720, 25 кадр/с
Аудио: AC3, 2 ch, 192 Кбит/с
Продолжительность: 8 x ~ 02:26:00
Перевод: Не требуется
Субтитры: Нет

Скриншоты



MediaInfo

General
Unique ID : 228954011671329625006530572427276547357 (0xAC3EF04E6A9B7C9E833524B6F167751D)
Complete name : C:\ШОУ\Выживалити.2024.WEB-DLRip 720p.Files-x\01 Выживалити.2024.WEB-DLRip 720p.Files-x.mkv
Format : Matroska
Format version : Version 4
File size : 3.26 GiB
Duration : 2 h 26 min
Overall bit rate mode : Variable
Overall bit rate : 3 190 kb/s
Frame rate : 25.000 FPS
Encoded date : 2024-03-01 18:50:01 UTC
Writing application : mkvmerge v7.8.0 ('River Man') 32bit built on Apr 3 2015 12:11:22
Writing library : libebml v1.3.1 + libmatroska v1.4.2
Video
ID : 1
Format : AVC
Format/Info : Advanced Video Codec
Format profile : High@L4.1
Format settings : CABAC / 4 Ref Frames
Format settings, CABAC : Yes
Format settings, Reference frames : 4 frames
Codec ID : V_MPEG4/ISO/AVC
Duration : 2 h 26 min
Bit rate mode : Variable
Bit rate : 3 000 kb/s
Width : 1 280 pixels
Height : 720 pixels
Display aspect ratio : 16:9
Frame rate mode : Constant
Frame rate : 25.000 FPS
Color space : YUV
Chroma subsampling : 4:2:0
Bit depth : 8 bits
Scan type : Progressive
Bits/(Pixel*Frame) : 0.130
Stream size : 3.06 GiB (94%)
Default : Yes
Forced : No
Color range : Limited
Color primaries : BT.709
Transfer characteristics : BT.709
Matrix coefficients : BT.709
Audio
ID : 2
Format : AC-3
Format/Info : Audio Coding 3
Commercial name : Dolby Digital
Codec ID : A_AC3
Duration : 2 h 26 min
Bit rate mode : Constant
Bit rate : 192 kb/s
Channel(s) : 2 channels
Channel layout : L R
Sampling rate : 48.0 kHz
Frame rate : 31.250 FPS (1536 SPF)
Compression mode : Lossy
Delay relative to video : -120 ms
Stream size : 201 MiB (6%)
Service kind : Complete Main
Default : Yes
Forced : No

Внимание! Раздача ведётся путём добавления новых серий

Раздача ведётся путём добавления новых серий, при каждом добавлении создаётся новый торрент. Чтобы начать докачку новой серии, пользователям необходимо сделать следующее:
- Остановить скачивание.
- Удалить старый торрент у себя из клиента (старые серии удалять не надо).
- Скачать новый торрент и запустить его у себя в клиенте вместо старого, при этом указать клиенту путь в старую папку куда и должно происходить скачивание новых серий.
Ваш клиент при этом должен произвести хеширование (проверку) старой папки (если не производит сам - помогите ему сделать это), и будет докачивать только те серии которых у вас ещё нет. Старые серии при этом не удаляются, а продолжают раздаваться!
Релиз от:

Release was prepared by RG Files-x

[Profile] [PM]
Display posts:    
Reply to topic

Current time is: 27-May 18:52

All times are UTC + 3



You cannot post new topics in this forum
You cannot reply to topics in this forum
You cannot edit your posts in this forum
You cannot delete your posts in this forum
You cannot vote in polls in this forum
You cannot attach files in this forum
You cannot download files in this forum