Сокровища императора [1-6 выпуск] (2024) WEBRip от Files-x

Reply to topic
 
Author Message

bond74 ®

Gender: Male

Longevity: 5 years 5 months

Posts: 2365

Post 11-Mar-2024 08:37

[Quote]

Сокровища императора Год выпуска: 2024
Жанр:ТВ-шоу, игровое шоу, реалити-шоу
Выпущено: Россия, ТНТ
Ведущий: Ольга Бузова, Михаил Галустян
В ролях: Сергей Жуков, Гарик Харламов, Жора Крыжовников, Артемий Лебедев, Валя Карнавал
Описание: Новое шоу ТНТ, в котором звезды будут проходить интересные и сложные испытания ради приза в миллион юаней (четырнадцать миллионов рублей)! Но делать это они будут не в одиночку, а в паре с теми, кого сами выберут для участия в проекте: коллегу или друга, родственника, члена семьи или даже домработницу. Главное — полное доверие и взаимопонимание. В рамках нового шоу пары участников отправляются в большое китайское приключение. В течение месяца им придется путешествовать по региону и на скорость выполнять разнообразные задания, получать которые они будут в каждом выпуске шоу. Победителем станет тот, кто первым придет к финальной точке. Участников ждут испытания на время, сообразительность и выносливость. Однако главное условие — в погоне за сокровищем проявить максимум человеческих качеств, делая правильный выбор и принимая верные решения. В проекте примут участие тринадцать пар. В каждом выпуске одна будет покидать шоу.
Качество: WEBRip
Видео: XviD, ~ 1400 Кбит/с, 720x400, 25 кадр/с
Аудио: AC3, 2 ch, 192 Кбит/с
Продолжительность: 1 x ~ 02:14:00
Перевод: Не требуется
Субтитры: Нет

Скриншоты



MediaInfo

General
Complete name : C:\ШОУ\Сокровища императора.2024.WEB-DLRip.Files-x\01. Сокровища императора.2024.WEB-DLRip.Files-x.avi
Format : AVI
Format/Info : Audio Video Interleave
Format settings : BitmapInfoHeader / WaveFormatEx
File size : 1.69 GiB
Duration : 2 h 14 min
Overall bit rate : 1 801 kb/s
Frame rate : 25.000 FPS
Writing application : VirtualDubMod 1.5.10.3 | www.virtualdub-fr.org || (build 2550/release)
Writing library : VirtualDubMod build 2550/release
Video
ID : 0
Format : MPEG-4 Visual
Format profile : Advanced Simple@L5
Format settings : BVOP1 / Custom Matrix
Format settings, BVOP : 1
Format settings, QPel : No
Format settings, GMC : No warppoints
Format settings, Matrix : Custom
Codec ID : XVID
Codec ID/Hint : XviD
Duration : 2 h 14 min
Bit rate : 1 600 kb/s
Width : 720 pixels
Height : 400 pixels
Display aspect ratio : 16:9
Frame rate : 25.000 FPS
Color space : YUV
Chroma subsampling : 4:2:0
Bit depth : 8 bits
Scan type : Progressive
Compression mode : Lossy
Bits/(Pixel*Frame) : 0.222
Stream size : 1.50 GiB (89%)
Writing library : XviD 73
Audio
ID : 1
Format : AC-3
Format/Info : Audio Coding 3
Commercial name : Dolby Digital
Codec ID : 2000
Duration : 2 h 14 min
Bit rate mode : Constant
Bit rate : 192 kb/s
Channel(s) : 2 channels
Channel layout : L R
Sampling rate : 48.0 kHz
Frame rate : 31.250 FPS (1536 SPF)
Compression mode : Lossy
Stream size : 184 MiB (11%)
Alignment : Split across interleaves
Interleave, duration : 40 ms (1.00 video frame)
Interleave, preload duration : 500 ms
Service kind : Complete Main

Внимание! Раздача ведётся путём добавления новых серий

Раздача ведётся путём добавления новых серий, при каждом добавлении создаётся новый торрент. Чтобы начать докачку новой серии, пользователям необходимо сделать следующее:
- Остановить скачивание.
- Удалить старый торрент у себя из клиента (старые серии удалять не надо).
- Скачать новый торрент и запустить его у себя в клиенте вместо старого, при этом указать клиенту путь в старую папку куда и должно происходить скачивание новых серий.
Ваш клиент при этом должен произвести хеширование (проверку) старой папки (если не производит сам - помогите ему сделать это), и будет докачивать только те серии которых у вас ещё нет. Старые серии при этом не удаляются, а продолжают раздаваться!
Релиз от:

Release was prepared by RG Files-x

[Profile] [PM]

Yakoob

Gender: Male

Longevity: 1 month 4 days

Posts: 1

Post 19-Mar-2024 13:46 (after 8 days)

[Quote]

Спасибо! А второй выпуск будет?
[Profile] [PM]
Display posts:    
Reply to topic

Current time is: 24-Apr 08:59

All times are UTC + 3



You cannot post new topics in this forum
You cannot reply to topics in this forum
You cannot edit your posts in this forum
You cannot delete your posts in this forum
You cannot vote in polls in this forum
You cannot attach files in this forum
You cannot download files in this forum