Чужие: Антология / Alien Anthology (1979 - 1997) BDRip 1080p | Лицензия | Director's Cut, Special Edition

Reply to topic
 
Author Message

HardwareMining ®

Gender: Male

Longevity: 4 years 6 months

Posts: 603

Post 31-Mar-2024 12:32

[Quote]

Чужие: Антология / Alien Anthology

Чужой / Alien - 1979 | Director’s cut

Чужой / Alien
«В космосе твой крик никто не услышит...»
Год выпуска: 1979
Жанр: ужасы, фантастика, триллер
Выпущено: Великобритания, США | Brandywine Productions Ltd., Twentieth Century-Fox Productions Ltd.
Режиссер: Ридли Скотт
В ролях: Сигурни Уивер (Ripley,), Том Скеррит (Dallas), Вероника Картрайт (Lambert), Гарри Дин Стэнтон (Brett), Джон Хёрт (Kane), Иэн Холм (Ash), Яфет Котто (Parker), Боладжи Бадеджо (Alien), Хелен Хортон (Mother, озвучка), Эдди Пауэлл (Alien, в титрах не указан)
О фильме:
В далеком будущем возвращающийся на Землю грузовой космический корабль перехватывает исходящий с неизвестной планеты сигнал. Экипаж, в соответствии с основными инструкциями, обязан найти и исследовать источник сигнала. Оказавшись на планете, астронавты повсюду обнаруживают предметы, по виду напоминающие гигантские коконы.

Качество: BDRip 1080p
Видео: AVC, 1920x816 (2.35:1), 23,976 fps, 10.2 Mb/s (0.272 bit/pixel)
Аудио: русский, AC3, 5.1, 48 kHz, 640 kbps CBR
Продолжительность: 01:55:49
Перевод: Дублированный | Лицензия
Субтитры: Отсутствуют

Скриншоты

MediaInfo

General
Unique ID : 198730473953863705132336888944759678097 (0x958218D9407E7DC6AC2B0FC3E6582491)
Complete name : E:\GF\Alien Antology\Alien.1979.BDRip.1080p.Rip.by.HardwareMining.R.G.Generalfilm.mkv
Format : Matroska
Format version : Version 4
File size : 8.79 GiB
Duration : 1 h 55 min
Overall bit rate : 10.9 Mb/s
Frame rate : 23.976 FPS
Movie name : Alien.1979.BDRip.1080p.Rip.by.HardwareMining.R.G.Generalfilm
Encoded date : 2024-03-27 14:19:40 UTC
Writing application : mkvmerge v6.8.0 ('Theme for Great Cities') 32bit built on Mar 2 2014 21:27:07
Writing library : libebml v1.3.0 + libmatroska v1.4.1
Cover : Yes
Attachments : cover.png
Video
ID : 1
Format : AVC
Format/Info : Advanced Video Codec
Format profile : High@L4.1
Format settings : CABAC / 4 Ref Frames
Format settings, CABAC : Yes
Format settings, Reference frames : 4 frames
Codec ID : V_MPEG4/ISO/AVC
Duration : 1 h 55 min
Bit rate : 10.2 Mb/s
Width : 1 920 pixels
Height : 816 pixels
Display aspect ratio : 2.35:1
Frame rate mode : Constant
Frame rate : 23.976 FPS
Color space : YUV
Chroma subsampling : 4:2:0
Bit depth : 8 bits
Scan type : Progressive
Bits/(Pixel*Frame) : 0.272
Stream size : 8.10 GiB (92%)
Writing library : x264 core 130 r2273 b3065e6
Encoding settings : cabac=1 / ref=4 / deblock=1:-2:-1 / analyse=0x3:0x133 / me=umh / subme=10 / psy=1 / psy_rd=1.00:0.08 / mixed_ref=1 / me_range=32 / chroma_me=1 / trellis=2 / 8x8dct=1 / cqm=0 / deadzone=21,11 / fast_pskip=0 / chroma_qp_offset=-3 / threads=48 / lookahead_threads=6 / sliced_threads=0 / nr=0 / decimate=1 / interlaced=0 / bluray_compat=0 / constrained_intra=0 / bframes=11 / b_pyramid=2 / b_adapt=2 / b_bias=0 / direct=3 / weightb=1 / open_gop=0 / weightp=2 / keyint=250 / keyint_min=25 / scenecut=40 / intra_refresh=0 / rc=2pass / mbtree=0 / bitrate=10230 / ratetol=1.0 / qcomp=0.60 / qpmin=0 / qpmax=69 / qpstep=4 / cplxblur=20.0 / qblur=0.5 / ip_ratio=1.40 / pb_ratio=1.30 / aq=2:1.00
Language : English
Default : Yes
Forced : No
Color range : Limited
Color primaries : BT.709
Transfer characteristics : BT.709
Matrix coefficients : BT.709
Audio
ID : 2
Format : AC-3
Format/Info : Audio Coding 3
Commercial name : Dolby Digital
Codec ID : A_AC3
Duration : 1 h 55 min
Bit rate mode : Constant
Bit rate : 640 kb/s
Channel(s) : 6 channels
Channel layout : L R C LFE Ls Rs
Sampling rate : 48.0 kHz
Frame rate : 31.250 FPS (1536 SPF)
Compression mode : Lossy
Stream size : 530 MiB (6%)
Title : Dub | Лицензия
Language : Russian
Service kind : Complete Main
Default : Yes
Forced : Yes
AC3_metadata cmixlev : -4.5 dB
surmixlev : -6 dB
Menu
00:00:00.000 : en:00:00:00.000
00:02:01.121 : en:00:02:01.121
00:04:40.155 : en:00:04:40.155
00:07:55.850 : en:00:07:55.850
00:09:10.508 : en:00:09:10.508
00:12:40.426 : en:00:12:40.426
00:14:16.105 : en:00:14:16.105
00:20:05.913 : en:00:20:05.913
00:23:22.651 : en:00:23:22.651
00:25:05.254 : en:00:25:05.254
00:27:50.877 : en:00:27:50.877
00:31:51.826 : en:00:31:51.826
00:35:32.922 : en:00:35:32.922
00:37:04.347 : en:00:37:04.347
00:40:33.890 : en:00:40:33.890
00:43:26.520 : en:00:43:26.520
00:47:28.304 : en:00:47:28.304
00:50:06.128 : en:00:50:06.128
00:51:44.309 : en:00:51:44.309
00:54:24.678 : en:00:54:24.678
00:59:01.746 : en:00:59:01.746
01:00:26.873 : en:01:00:26.873
01:03:36.312 : en:01:03:36.312
01:08:18.719 : en:01:08:18.719
01:10:04.951 : en:01:10:04.951
01:12:52.409 : en:01:12:52.409
01:14:33.928 : en:01:14:33.928
01:17:14.713 : en:01:17:14.713
01:19:02.905 : en:01:19:02.905
01:22:34.282 : en:01:22:34.282
01:26:39.235 : en:01:26:39.235
01:28:49.574 : en:01:28:49.574
01:30:48.735 : en:01:30:48.735
01:32:39.762 : en:01:32:39.762
01:34:23.783 : en:01:34:23.783
01:37:45.151 : en:01:37:45.151
01:39:14.448 : en:01:39:14.448
01:43:28.243 : en:01:43:28.243
01:46:17.955 : en:01:46:17.955
01:53:05.612 : en:01:53:05.61

Чужие / Aliens - 1986 | Special Edition

Чужие / Aliens
«В некоторых местах Вселенной вы не одиноки...»
Год выпуска: 1986
Жанр: ужасы, фантастика, боевик, триллер, приключения
Выпущено: Великобритания, США | 20th Century Fox Film Corporation, SLM Production Group, Brandywine Productions Ltd.
Режиссер: Джеймс Кэмерон
В ролях: Сигурни Уивер (Ellen Ripley,), Кэрри Хенн (Rebecca 'Newt' Jorden), Майкл Бьен (Cpl. Dwayne Hicks), Лэнс Хенриксен (Bishop), Пол Райзер (Carter Burke), Билл Пэкстон (Pvt. Hudson), Уильям Хоуп (Lt. Gorman), Дженетт Голдстин (Pvt. Vasquez), Эл Мэтьюз (Sgt. Apone), Марк Ролстон (Pvt. Drake), Рикко Росс (Pvt. Frost), Колетт Хиллер (Cpl. Ferro)
О фильме:
Чужой – совершенный организм. Идеальная машина для убийства, чье физическое превосходство сочетается с его феноменальной жаждой уничтожения. Офицер Элен Рипли и команда космического корабля Ностромо один раз уже встретилась с такой тварью. В живых осталась только Элен.
Капсула с Элен найдена спасателями после многих лет блуждания в космосе. Ей сообщают, что планета L.V. 426 колонизирована, и ей придется вернуться туда, где начался ее кошмар, ибо связь с колонистами прервалась. И вот в составе группы космического десанта Рипли отправляется на проклятую планету. Но теперь их там поджидает не один Чужой, а тысячи. Кто сможет выжить в этой войне: чудовища, способные только убивать, или люди, способные мыслить?

Качество: BDRip 1080p
Видео: AVC, 1920x1032 (1.85:1), 23,976 fps, 22.9 Mb/s (0.483 bit/pixel)
Аудио: русский, AC3, 5.1, 48 kHz, 640 kbps CBR
Продолжительность: 02:34:26
Перевод: Дублированный | Лицензия
Субтитры: Отсутствуют

Скриншоты

MediaInfo

General
Unique ID : 185025380248372014216459056739492502094 (0x8B32978F39B93B05999790A33E531A4E)
Complete name : E:\GF\Alien Antology\Aliens.1986.BDRip.1080p.Rip.by.HardwareMining.R.G.Generalfilm.mkv
Format : Matroska
Format version : Version 4
File size : 25.4 GiB
Duration : 2 h 34 min
Overall bit rate : 23.6 Mb/s
Frame rate : 23.976 FPS
Movie name : Aliens.1986.BDRip.1080p.Rip.by.HardwareMining.R.G.Generalfilm
Encoded date : 2024-03-29 15:29:01 UTC
Writing application : mkvmerge v6.8.0 ('Theme for Great Cities') 32bit built on Mar 2 2014 21:27:07
Writing library : libebml v1.3.0 + libmatroska v1.4.1
Cover : Yes
Attachments : cover0.png
Video
ID : 1
Format : AVC
Format/Info : Advanced Video Codec
Format profile : High@L4.1
Format settings : CABAC / 4 Ref Frames
Format settings, CABAC : Yes
Format settings, Reference frames : 4 frames
Codec ID : V_MPEG4/ISO/AVC
Duration : 2 h 34 min
Bit rate : 22.9 Mb/s
Width : 1 920 pixels
Height : 1 032 pixels
Display aspect ratio : 1.85:1
Frame rate mode : Constant
Frame rate : 23.976 FPS
Color space : YUV
Chroma subsampling : 4:2:0
Bit depth : 8 bits
Scan type : Progressive
Bits/(Pixel*Frame) : 0.483
Stream size : 24.2 GiB (95%)
Writing library : x264 core 130 r2273 b3065e6
Encoding settings : cabac=1 / ref=4 / deblock=1:-2:-1 / analyse=0x3:0x133 / me=umh / subme=10 / psy=1 / psy_rd=1.00:0.08 / mixed_ref=1 / me_range=32 / chroma_me=1 / trellis=2 / 8x8dct=1 / cqm=0 / deadzone=21,11 / fast_pskip=0 / chroma_qp_offset=-3 / threads=48 / lookahead_threads=8 / sliced_threads=0 / nr=0 / decimate=1 / interlaced=0 / bluray_compat=0 / constrained_intra=0 / bframes=11 / b_pyramid=2 / b_adapt=2 / b_bias=0 / direct=3 / weightb=1 / open_gop=0 / weightp=2 / keyint=250 / keyint_min=25 / scenecut=40 / intra_refresh=0 / rc=2pass / mbtree=0 / bitrate=22930 / ratetol=1.0 / qcomp=0.60 / qpmin=0 / qpmax=69 / qpstep=4 / cplxblur=20.0 / qblur=0.5 / ip_ratio=1.40 / pb_ratio=1.30 / aq=2:1.00
Language : English
Default : Yes
Forced : No
Color range : Limited
Color primaries : BT.709
Transfer characteristics : BT.709
Matrix coefficients : BT.709
Audio
ID : 2
Format : AC-3
Format/Info : Audio Coding 3
Commercial name : Dolby Digital
Codec ID : A_AC3
Duration : 2 h 34 min
Bit rate mode : Constant
Bit rate : 640 kb/s
Channel(s) : 6 channels
Channel layout : L R C LFE Ls Rs
Sampling rate : 48.0 kHz
Frame rate : 31.250 FPS (1536 SPF)
Compression mode : Lossy
Stream size : 707 MiB (3%)
Title : Dub | Лицензия
Language : Russian
Service kind : Complete Main
Default : Yes
Forced : Yes
AC3_metadata cmixlev : -4.5 dB
surmixlev : -6 dB
Menu
00:00:00.000 : en:00:00:00.000
00:02:06.752 : en:00:02:06.752
00:05:15.732 : en:00:05:15.732
00:08:34.347 : en:00:08:34.347
00:10:52.110 : en:00:10:52.110
00:15:13.621 : en:00:15:13.621
00:17:25.002 : en:00:17:25.002
00:20:54.128 : en:00:20:54.128
00:25:02.501 : en:00:25:02.501
00:25:57.473 : en:00:25:57.473
00:30:03.718 : en:00:30:03.718
00:32:53.888 : en:00:32:53.888
00:35:56.863 : en:00:35:56.863
00:38:03.531 : en:00:38:03.531
00:45:40.071 : en:00:45:40.071
00:52:28.520 : en:00:52:28.520
00:54:48.076 : en:00:54:48.076
00:56:09.116 : en:00:56:09.116
01:00:11.107 : en:01:00:11.107
01:04:47.508 : en:01:04:47.508
01:10:10.998 : en:01:10:10.998
01:12:51.992 : en:01:12:51.992
01:16:22.870 : en:01:16:22.870
01:21:22.252 : en:01:21:22.252
01:23:17.200 : en:01:23:17.200
01:26:21.134 : en:01:26:21.134
01:31:22.060 : en:01:31:22.060
01:34:37.422 : en:01:34:37.422
01:37:25.256 : en:01:37:25.256
01:38:40.706 : en:01:38:40.706
01:41:23.244 : en:01:41:23.244
01:45:03.464 : en:01:45:03.464
01:47:15.554 : en:01:47:15.554
01:51:41.403 : en:01:51:41.403
01:52:58.605 : en:01:52:58.605
02:02:10.364 : en:02:02:10.364
02:05:54.046 : en:02:05:54.046
02:07:41.987 : en:02:07:41.987
02:13:15.529 : en:02:13:15.529
02:17:29.616 : en:02:17:29.616
02:22:24.703 : en:02:22:24.703
02:23:16.713 : en:02:23:16.713
02:30:16.007 : en:02:30:16.007
02:31:36.462 : en:02:31:36.46

Чужой 3 / Alien³ - 1992 | Special 'Assembly Cut' Edition

Чужой 3 / Alien³
«Снова началось...» Год выпуска: 1992
Жанр: ужасы, фантастика, боевик, триллер
Выпущено: США | 20th Century Fox Film Corporation, Brandywine Productions Ltd
Режиссер: Дэвид Финчер
В ролях: Сигурни Уивер (Ellen Ripley,), Чарльз С. Даттон (Dillon), Чарльз Дэнс (Clemens), Пол МакГэнн (Golic), Брайан Гловер (Andrews), Ральф Браун (Aaron), Дэниэл Уэбб (Morse), Кристофер Джон Филдс (Rains), Холт МакКэллани (Junior), Лэнс Хенриксен (Bishop II), Кристофер Фэйрбэнк (Murphy), Карл Чейз (Frank)
О фильме:
После бегства с планеты Чужих космический корабль Рипли терпит катастрофу вблизи так называемой планеты-тюрьмы — места, где отсиживают свой срок убийцы, насильники и прочие отбросы общества. Вместе с Рипли на эту планету попадает зародыш чужого, который и был причиной гибели корабля. Довольно быстро он превращается в гигантскую, зубастую тварь.

Качество: BDRip 1080p
Видео: AVC, 1920x816 (2.35:1), 23,976 fps, 8030 Kbit/s (0.214 bit/pixel)
Аудио: русский, AC3, 5.1, 48 kHz, 640 kbps CBR
Продолжительность: 02:24:52
Перевод: Дублированный | Лицензия
Субтитры: Отсутствуют

Скриншоты

MediaInfo

General
Unique ID : 183097425933945251538888133745089825246 (0x89BF4812A77B72CFB107A3C5AD25C9DE)
Complete name : E:\GF\Alien Antology\Alien.3.1992.BDRip.1080p.Rip.by.HardwareMining.R.G.Generalfilm.mkv
Format : Matroska
Format version : Version 4
File size : 8.77 GiB
Duration : 2 h 24 min
Overall bit rate : 8 670 kb/s
Frame rate : 23.976 FPS
Movie name : Alien.3.1992.BDRip.1080p.Rip.by.HardwareMining.R.G.Generalfilm
Encoded date : 2024-03-30 15:32:07 UTC
Writing application : mkvmerge v6.8.0 ('Theme for Great Cities') 32bit built on Mar 2 2014 21:27:07
Writing library : libebml v1.3.0 + libmatroska v1.4.1
Cover : Yes
Attachments : cover.png
Video
ID : 1
Format : AVC
Format/Info : Advanced Video Codec
Format profile : High@L4.1
Format settings : CABAC / 4 Ref Frames
Format settings, CABAC : Yes
Format settings, Reference frames : 4 frames
Codec ID : V_MPEG4/ISO/AVC
Duration : 2 h 24 min
Bit rate : 8 030 kb/s
Width : 1 920 pixels
Height : 816 pixels
Display aspect ratio : 2.35:1
Frame rate mode : Constant
Frame rate : 23.976 FPS
Color space : YUV
Chroma subsampling : 4:2:0
Bit depth : 8 bits
Scan type : Progressive
Bits/(Pixel*Frame) : 0.214
Stream size : 7.95 GiB (91%)
Writing library : x264 core 130 r2273 b3065e6
Encoding settings : cabac=1 / ref=4 / deblock=1:-2:-1 / analyse=0x3:0x133 / me=umh / subme=10 / psy=1 / psy_rd=1.00:0.08 / mixed_ref=1 / me_range=32 / chroma_me=1 / trellis=2 / 8x8dct=1 / cqm=0 / deadzone=21,11 / fast_pskip=0 / chroma_qp_offset=-3 / threads=48 / lookahead_threads=6 / sliced_threads=0 / nr=0 / decimate=1 / interlaced=0 / bluray_compat=0 / constrained_intra=0 / bframes=11 / b_pyramid=2 / b_adapt=2 / b_bias=0 / direct=3 / weightb=1 / open_gop=0 / weightp=2 / keyint=250 / keyint_min=25 / scenecut=40 / intra_refresh=0 / rc=2pass / mbtree=0 / bitrate=8030 / ratetol=1.0 / qcomp=0.60 / qpmin=0 / qpmax=69 / qpstep=4 / cplxblur=20.0 / qblur=0.5 / ip_ratio=1.40 / pb_ratio=1.30 / aq=2:1.00
Language : English
Default : Yes
Forced : No
Color range : Limited
Color primaries : BT.709
Transfer characteristics : BT.709
Matrix coefficients : BT.709
Audio
ID : 2
Format : AC-3
Format/Info : Audio Coding 3
Commercial name : Dolby Digital
Codec ID : A_AC3
Duration : 2 h 24 min
Bit rate mode : Constant
Bit rate : 640 kb/s
Channel(s) : 6 channels
Channel layout : L R C LFE Ls Rs
Sampling rate : 48.0 kHz
Frame rate : 31.250 FPS (1536 SPF)
Compression mode : Lossy
Stream size : 663 MiB (7%)
Title : Dub | Лицензия
Language : Russian
Service kind : Complete Main
Default : Yes
Forced : Yes
AC3_metadata cmixlev : -4.5 dB
surmixlev : -6 dB
Menu
00:00:00.000 : en:00:00:00.000
00:03:42.973 : en:00:03:42.973
00:04:31.480 : en:00:04:31.480
00:09:29.694 : en:00:09:29.694
00:12:13.399 : en:00:12:13.399
00:15:01.442 : en:00:15:01.442
00:16:33.701 : en:00:16:33.701
00:24:27.925 : en:00:24:27.925
00:26:31.757 : en:00:26:31.757
00:31:07.741 : en:00:31:07.741
00:33:12.824 : en:00:33:12.824
00:35:53.151 : en:00:35:53.151
00:37:43.261 : en:00:37:43.261
00:43:32.735 : en:00:43:32.735
00:46:11.268 : en:00:46:11.268
00:49:15.286 : en:00:49:15.286
00:51:46.812 : en:00:51:46.812
00:55:52.057 : en:00:55:52.057
00:59:33.320 : en:00:59:33.320
01:02:51.434 : en:01:02:51.434
01:07:33.257 : en:01:07:33.257
01:11:03.634 : en:01:11:03.634
01:14:12.823 : en:01:14:12.823
01:17:08.874 : en:01:17:08.874
01:19:05.699 : en:01:19:05.699
01:24:41.034 : en:01:24:41.034
01:26:19.507 : en:01:26:19.507
01:28:02.861 : en:01:28:02.861
01:29:09.928 : en:01:29:09.928
01:34:12.772 : en:01:34:12.772
01:37:18.708 : en:01:37:18.708
01:39:29.255 : en:01:39:29.255
01:42:47.453 : en:01:42:47.453
01:46:07.444 : en:01:46:07.444
01:49:57.716 : en:01:49:57.716
01:54:04.796 : en:01:54:04.796
01:56:30.024 : en:01:56:30.024
01:58:32.897 : en:01:58:32.897
02:05:23.808 : en:02:05:23.808
02:08:09.181 : en:02:08:09.181
02:10:50.175 : en:02:10:50.175
02:12:42.913 : en:02:12:42.913
02:16:18.462 : en:02:16:18.462
02:19:09.966 : en:02:19:09.966

Чужой 4: Воскрешение / Alien: Resurrection - 1997 | Special Edition

Чужой 4: Воскрешение / Alien: Resurrection
«Главное - спастись...» Год выпуска: 1997
Жанр: ужасы, фантастика, боевик, триллер
Выпущено: США | 20th Century Fox Film Corporation, Brandywine Productions Ltd.
Режиссер: Жан-Пьер Жёне
В ролях: Сигурни Уивер (Ellen Ripley,), Вайнона Райдер (Annalee Call,), Доминик Пинон (Vriess), Рон Перлман (Johner), Гари Дурдан (Christie), Майкл Уинкотт (Frank Elgyn), Ким Флауэрс (Sabra Hillard), Дэн Хедайя (Gen. Martin Perez), Дж. Э. Фримен (Dr. Mason Wren), Брэд Дуриф (Dr. Jonathan Gediman), Рэймонд Крус (Vincent Distephano), Лиленд Орсер (Larry Purvis)
О фильме:
Спустя двести лет после событий, произошедших на планете-тюрьме, группа ученых, опекаемых военным командованием, клонирует Эллен Рипли, чтобы с ее помощью заполучить детеныша инопланетного монстра. Вскоре он уже сам начинает плодиться, производя на свет новую породу — помесь кровожадного пришельца и... человека.

Качество: BDRip 1080p
Видео: AVC, 1920x816 (2.35:1), 23,976 fps, 13.0 Mb/s (0.345 bit/pixel)
Аудио: русский, AC3, 5.1, 48 kHz, 640 kbps CBR
Продолжительность: 01:56:08
Перевод: Дублированный | Лицензия
Субтитры: Отсутствуют

Скриншоты

MediaInfo

General
Unique ID : 245128618799661172567084938056723816241 (0xB86A0E01F335581E886DA20709EB5F31)
Complete name : E:\GF\Alien Antology\Alien.Resurrection.1997.BDRip.1080p.Rip.by.HardwareMining.R.G.Generalfilm.mkv
Format : Matroska
Format version : Version 4
File size : 11.0 GiB
Duration : 1 h 56 min
Overall bit rate : 13.6 Mb/s
Frame rate : 23.976 FPS
Movie name : Alien.Resurrection.1997.BDRip.1080p.Rip.by.HardwareMining.R.G.Generalfilm
Encoded date : 2024-03-31 06:29:23 UTC
Writing application : mkvmerge v6.8.0 ('Theme for Great Cities') 32bit built on Mar 2 2014 21:27:07
Writing library : libebml v1.3.0 + libmatroska v1.4.1
Cover : Yes
Attachments : cover.png
Video
ID : 1
Format : AVC
Format/Info : Advanced Video Codec
Format profile : High@L4.1
Format settings : CABAC / 4 Ref Frames
Format settings, CABAC : Yes
Format settings, Reference frames : 4 frames
Codec ID : V_MPEG4/ISO/AVC
Duration : 1 h 56 min
Bit rate : 13.0 Mb/s
Width : 1 920 pixels
Height : 816 pixels
Display aspect ratio : 2.35:1
Frame rate mode : Constant
Frame rate : 23.976 FPS
Color space : YUV
Chroma subsampling : 4:2:0
Bit depth : 8 bits
Scan type : Progressive
Bits/(Pixel*Frame) : 0.345
Stream size : 10.3 GiB (93%)
Writing library : x264 core 130 r2273 b3065e6
Encoding settings : cabac=1 / ref=4 / deblock=1:-2:-1 / analyse=0x3:0x133 / me=umh / subme=10 / psy=1 / psy_rd=1.00:0.08 / mixed_ref=1 / me_range=32 / chroma_me=1 / trellis=2 / 8x8dct=1 / cqm=0 / deadzone=21,11 / fast_pskip=0 / chroma_qp_offset=-3 / threads=48 / lookahead_threads=6 / sliced_threads=0 / nr=0 / decimate=1 / interlaced=0 / bluray_compat=0 / constrained_intra=0 / bframes=11 / b_pyramid=2 / b_adapt=2 / b_bias=0 / direct=3 / weightb=1 / open_gop=0 / weightp=2 / keyint=250 / keyint_min=25 / scenecut=40 / intra_refresh=0 / rc=2pass / mbtree=0 / bitrate=12970 / ratetol=1.0 / qcomp=0.60 / qpmin=0 / qpmax=69 / qpstep=4 / cplxblur=20.0 / qblur=0.5 / ip_ratio=1.40 / pb_ratio=1.30 / aq=2:1.00
Language : English
Default : Yes
Forced : No
Color range : Limited
Color primaries : BT.709
Transfer characteristics : BT.709
Matrix coefficients : BT.709
Audio
ID : 2
Format : AC-3
Format/Info : Audio Coding 3
Commercial name : Dolby Digital
Codec ID : A_AC3
Duration : 1 h 56 min
Bit rate mode : Constant
Bit rate : 640 kb/s
Channel(s) : 6 channels
Channel layout : L R C LFE Ls Rs
Sampling rate : 48.0 kHz
Frame rate : 31.250 FPS (1536 SPF)
Compression mode : Lossy
Stream size : 532 MiB (5%)
Title : Dub | Лицензия
Language : Russian
Service kind : Complete Main
Default : Yes
Forced : Yes
AC3_metadata cmixlev : -4.5 dB
surmixlev : -6 dB
Menu
00:00:00.000 : en:00:00:00.000
00:03:27.332 : en:00:03:27.332
00:04:26.308 : en:00:04:26.308
00:06:30.140 : en:00:06:30.140
00:08:49.279 : en:00:08:49.279
00:12:06.225 : en:00:12:06.225
00:15:03.528 : en:00:15:03.528
00:19:25.539 : en:00:19:25.539
00:21:37.838 : en:00:21:37.838
00:24:12.868 : en:00:24:12.868
00:26:19.995 : en:00:26:19.995
00:30:08.765 : en:00:30:08.765
00:32:19.563 : en:00:32:19.563
00:37:16.693 : en:00:37:16.693
00:39:26.739 : en:00:39:26.739
00:42:36.679 : en:00:42:36.679
00:46:30.663 : en:00:46:30.663
00:49:20.791 : en:00:49:20.791
00:53:35.379 : en:00:53:35.379
00:57:04.963 : en:00:57:04.963
01:03:01.653 : en:01:03:01.653
01:07:40.431 : en:01:07:40.431
01:19:37.147 : en:01:19:37.147
01:22:07.297 : en:01:22:07.297
01:28:21.421 : en:01:28:21.421
01:31:45.917 : en:01:31:45.917
01:34:15.525 : en:01:34:15.525
01:38:58.391 : en:01:38:58.391
01:40:45.539 : en:01:40:45.539
01:43:49.849 : en:01:43:49.849
01:47:52.299 : en:01:47:52.299
01:49:51.418 : en:01:49:51.418
Релиз от:
[Profile] [PM]
Display posts:    
Reply to topic

Current time is: 24-Apr 08:38

All times are UTC + 3



You cannot post new topics in this forum
You cannot reply to topics in this forum
You cannot edit your posts in this forum
You cannot delete your posts in this forum
You cannot vote in polls in this forum
You cannot attach files in this forum
You cannot download files in this forum