Конец славы (2024) WEB-DLRip-AVC от Files-x

Reply to topic
 
Author Message

Серый1779 ®

Gender: Male

Longevity: 5 years 5 months

Posts: 3519

Location: Украина

Post 31-Mar-2024 18:58

[Quote]

Конец славы
Год выпуска: 2024
Жанр: Комедия, драма
Выпущено: Россия, MEM Cinema Production, START, Yellow, Black & White
Режиссер: Марюс Вайсберг
В ролях: Павел Деревянко, Сергей Чирков, Дарья Урсуляк, Екатерина Климова, Наталья Хорохорина, Ольга Воронина, Максим Лагашкин, Александр Ильин ст., Ян Цапник, Семён Арзуманов, Наталья Бардо, Андрей Илкин, Яна Крайнова, Сергей Вагин, Виктория Каруна
О фильме: Востребованный и избалованный актер Слава в один момент теряет все - контракты, популярность, хорошие отношения с семьей. Однако главный герой не сдается и вместе со своим агентом придумывает опасную авантюру - похоронить себя заживо, чтобы воскресить карьеру и начать с чистого листа.

Качество: WEB-DLRip-AVC
Видео: MPEG-4 AVC, ~ 1990 Кбит/с, 1024x432, 25 кадр/с
Аудио: AC3, 6 ch, 448 Кбит/с
Продолжительность: 01:35:28
Перевод: Не требуется
Субтитры: Русские

Скриншоты



MediaInfo

General
Unique ID : 42838917584388849902522779281886690713 (0x203A79B4DE736FFF9C21C9C04FC23D99)
Complete name : F:\Конец славы.(2024).WEB-DLRip.(AVC).by.Серый1779.Files-x.mkv
Format : Matroska
Format version : Version 4 / Version 2
File size : 1.63 GiB
Duration : 1 h 35 min
Overall bit rate : 2 439 kb/s
Movie name : Konets.slavyi.2023.WEB-DL.1080p.ELEKTRI4KA.UNIONGANG.
Encoded date : UTC 2024-03-26 19:30:22
Writing application : mkvmerge v32.0.0 ('Astral Progressions') 64-bit
Writing library : libebml v1.3.7 + libmatroska v1.5.0
Video
ID : 1
Format : AVC
Format/Info : Advanced Video Codec
Format profile : High@L4.1
Format settings : CABAC / 9 Ref Frames
Format settings, CABAC : Yes
Format settings, RefFrames : 9 frames
Codec ID : V_MPEG4/ISO/AVC
Duration : 1 h 35 min
Bit rate : 1 990 kb/s
Width : 1 024 pixels
Height : 432 pixels
Display aspect ratio : 2.40:1
Frame rate mode : Constant
Frame rate : 24.000 FPS
Color space : YUV
Chroma subsampling : 4:2:0
Bit depth : 8 bits
Scan type : Progressive
Bits/(Pixel*Frame) : 0.187
Stream size : 1.33 GiB (82%)
Writing library : x264 core 146 r2538 121396c
Encoding settings : cabac=1 / ref=9 / deblock=1:-2:-1 / analyse=0x3:0x133 / me=umh / subme=9 / psy=1 / psy_rd=1.00:0.15 / mixed_ref=1 / me_range=32 / chroma_me=1 / trellis=2 / 8x8dct=1 / cqm=0 / deadzone=21,11 / fast_pskip=0 / chroma_qp_offset=-3 / threads=18 / lookahead_threads=3 / sliced_threads=0 / nr=0 / decimate=1 / interlaced=0 / bluray_compat=0 / constrained_intra=0 / bframes=9 / b_pyramid=2 / b_adapt=2 / b_bias=0 / direct=3 / weightb=1 / open_gop=0 / weightp=2 / keyint=250 / keyint_min=23 / scenecut=40 / intra_refresh=0 / rc=2pass / mbtree=0 / bitrate=1990 / ratetol=1.0 / qcomp=0.60 / qpmin=0 / qpmax=69 / qpstep=4 / cplxblur=20.0 / qblur=0.5 / ip_ratio=1.40 / pb_ratio=1.30 / aq=2:1.00
Default : Yes
Forced : No
Color range : Limited
Color primaries : BT.709
Transfer characteristics : BT.709
Matrix coefficients : BT.709
Audio
ID : 3
Format : AC-3
Format/Info : Audio Coding 3
Format settings, Endianness : Big
Codec ID : A_AC3
Duration : 1 h 35 min
Bit rate mode : Constant
Bit rate : 448 kb/s
Channel(s) : 6 channels
Channel positions : Front: L C R, Side: L R, LFE
Sampling rate : 48.0 kHz
Frame rate : 31.250 FPS (1536 SPF)
Bit depth : 16 bits
Compression mode : Lossy
Stream size : 306 MiB (18%)
Title : Original AC3 (KP HD)
Language : Russian
Service kind : Complete Main
Default : Yes
Forced : Yes
Text
ID : 2
Format : UTF-8
Codec ID : S_TEXT/UTF8
Codec ID/Info : UTF-8 Plain Text
Duration : 1 h 33 min
Bit rate : 97 b/s
Count of elements : 1724
Stream size : 67.0 KiB (0%)
Title : Full Al
Language : Russian
Default : No
Forced : No
Релиз от:

Release was prepared by RG Files-x

[Profile] [PM]
Display posts:    
Reply to topic

Current time is: 24-Apr 08:09

All times are UTC + 3



You cannot post new topics in this forum
You cannot reply to topics in this forum
You cannot edit your posts in this forum
You cannot delete your posts in this forum
You cannot vote in polls in this forum
You cannot attach files in this forum
You cannot download files in this forum