Шифр [4 сезон: 1-5 серии из 16] (2024) WEB-DL 1080p от Files-х

Reply to topic
 
Author Message

bond74 ®

Gender: Male

Longevity: 5 years 5 months

Posts: 2365

Post 31-Mar-2024 20:00

[Quote]

Шифр Год выпуска: 2024
Жанр: Детектив, история
Выпущено: Россия, Кинокомпания "Sony Pictures Television", «Леан-М», Продюсерское объединение «Победа»
Режиссер: Вера Сторожева
В ролях: Марьяна Спивак, Екатерина Вилкова, Елена Панова, Яна Осипова, Сергей Пускепалис, Виталия Корниенко, Сергей Медведев (III), Максим Стоянов, Иван Шибанов, Светлана Колпакова, Сергей Попов, Николай Токарев, Семён Шкаликов, Дарья Мингазетдинова, Ксения Попович, Екатерина Вуличенко, Максим Битюков, Наталья Суркова, Анастасия Великородная, Светлана Тома, Любовь Руднева, Татьяна Яхина, Анна Королёва (II), Марина Хейстонен, Егор Кутенков, Татьяна Полонская, Илья Малаков, Михаил Крылов
О фильме: Подруги, которых связывает военное прошлое, работа в спецотделе ГРУ, продолжают вести расследования и помогать следственным органам в особо запутанных делах. Но на этот раз все гораздо сложнее - Проскурин уволился из МУРа, перевелся в другой город. По просьбе Проскурина при МВД создается специальный аналитический отдел. Туда приглашают девушек. Они становятся частью системы и должны действовать по правилам. Девушки соглашаются, хотя понимают, что конфликта не избежать. Им предстоит отправиться в Кисловодск, где погиб видный партийный работник, его загрызли собственные собаки. В предсмертной записке он обвинил человека, погибшего много лет назад…

Качество: WEB-DL 1080p
Видео: MPEG-4 AVC, ~ 4000 Кбит/с, 1920x1080, 25 кадр/с
Аудио: AC3, 2 ch, 192 Кбит/с
Продолжительность: 2 х ~ 00:50:57
Перевод: Не требуется
Cубтитры: Нет

Скриншоты



MediaInfo

General
Unique ID : 98110592932612285390131356137066136809 (0x49CF69B27102FA6349926CA14F5D04E9)
Complete name : C:\Шифр.s04.2024.WEB-DL 1080p.Files-x\01. Шифр.s04.2024.WEB-DL 1080p.Files-x.mkv
Format : Matroska
Format version : Version 4
File size : 1.48 GiB
Duration : 50 min 57 s
Overall bit rate : 4 166 kb/s
Frame rate : 25.000 FPS
Movie name : Shifr.S04.E01.2024.WEB-DL.1080p
Encoded date : 2024-04-02 19:45:21 UTC
Writing application : mkvmerge v83.0 ('Circle Of Friends') 64-bit
Writing library : libebml v1.4.5 + libmatroska v1.7.1
Attachments : poster.jpg
Video
ID : 1
Format : AVC
Format/Info : Advanced Video Codec
Format profile : High@L4
Format settings : CABAC / 3 Ref Frames
Format settings, CABAC : Yes
Format settings, Reference frames : 3 frames
Codec ID : V_MPEG4/ISO/AVC
Duration : 50 min 57 s
Bit rate mode : Constant
Bit rate : 4 000 kb/s
Width : 1 920 pixels
Height : 1 080 pixels
Display aspect ratio : 16:9
Frame rate mode : Constant
Frame rate : 25.000 FPS
Color space : YUV
Chroma subsampling : 4:2:0
Bit depth : 8 bits
Scan type : Progressive
Bits/(Pixel*Frame) : 0.077
Time code of first frame : 00:00:00:0000000000
Stream size : 1.41 GiB (95%)
Default : Yes
Forced : No
Audio
ID : 2
Format : AC-3
Format/Info : Audio Coding 3
Commercial name : Dolby Digital
Codec ID : A_AC3
Duration : 50 min 57 s
Bit rate mode : Constant
Bit rate : 192 kb/s
Channel(s) : 2 channels
Channel layout : L R
Sampling rate : 48.0 kHz
Frame rate : 31.250 FPS (1536 SPF)
Compression mode : Lossy
Stream size : 70.0 MiB (5%)
Title : [Original | 2.0 AC-3 Audio]
Language : Russian
Service kind : Complete Main
Default : Yes
Forced : No
Text
ID : 3
Format : UTF-8
Codec ID : S_TEXT/UTF8
Codec ID/Info : UTF-8 Plain Text
Duration : 49 min 48 s
Bit rate : 108 b/s
Frame rate : 0.289 FPS
Count of elements : 865
Stream size : 39.7 KiB (0%)
Title : [SDH]
Language : Russian
Default : No
Forced : No

Раздача ведётся путём добавления новых серий

Внимание! Раздача ведётся путём добавления новых серий; при каждом добавлении создаётся новый торрент.
Чтобы начать докачку новой серии, пользователям необходимо сделать следующее:
1. Остановить скачивание;
2. Удалить старый торрент у себя из клиента (старые серии удалять не надо);
3. Скачать новый торрент и запустить его у себя в клиенте вместо старого, при этом указать клиенту путь в старую папку куда и должно происходить скачивание новых серий. Ваш клиент при этом должен произвести хеширование (проверку) старой папки и будет докачивать только те серии, которых у вас ещё нет. Старые серии при этом не удаляются, а продолжают раздаваться! Eсли вы уже удалили старые серии, то предотвратить повторную закачку старых серий можно, отжав галочку в соответствующих местах при запуске нового торрента.
Релиз от:

Release was prepared by RG Files-x

[Profile] [PM]
Display posts:    
Reply to topic

Current time is: 24-Apr 09:23

All times are UTC + 3



You cannot post new topics in this forum
You cannot reply to topics in this forum
You cannot edit your posts in this forum
You cannot delete your posts in this forum
You cannot vote in polls in this forum
You cannot attach files in this forum
You cannot download files in this forum