Когда любовь совсем не ждешь [1-4 серии из 4] (2024) WEB-DL 1080p от Files-x

Reply to topic
 
Author Message

patriot67 ®

Gender: Male

Longevity: 4 years 5 months

Posts: 245

Post 01-Apr-2024 19:49

[Quote]

Когда любовь совсем не ждешь Год выпуска: 2024
Жанр: Мелодрама, драма
Выпущено: Россия, Кинокомпания "AVK production"
Режиссер: Валентин Донсков
В ролях: Эрика Булатая, Ян Ильвес, Артем Федотов, Наталия Николаева, Евдокия Лаврухина, Максим Иванов (I), Вероника Лысакова, Людмила Титова
О фильме: К своим тридцати годам Лида уже успела состояться как перспективный архитектор. Она надеется, что вот-вот получит высокую должность, но начальник тянет с повышением. Изливая подруге душу в ресторане, она встречает своего бывшего. Саша и Лида расстались восемь лет назад, как считает она, из-за измены, а он – из-за того, что она променяла его на богатого поклонника. Разговор бывших влюбленных начинается с обвинений, а заканчивается дома у Саши. Наутро Лида видит в компьютере его фотографию с девушкой. Осознав, что Саша в отношениях, она сбегает, ругая себя, что снова поверила предателю. Лида надеется, что больше никогда его не увидит, ведь они даже не обменялись номерами. Но оказывается, ее босс решил уйти на пенсию и передал управление новому владельцу компании – Саше...
Качество: WEB-DL 1080p
Видео: MPEG-4 AVC, ~ 3642 Кбит/с, 1920x1080, 25 кадр/с
Аудио: AC3, 2 ch, 192 Кбит/с
Продолжительность: 4 х ~ 00:47:58
Перевод: Не требуется
Cубтитры: Нет

Скриншоты



MediaInfo

General
Unique ID : 203026339619310088661705388982599272662 (0x98BD7360E48BF360B3592E5B4281C8D6)
Complete name : F:\Когда любовь совсем не ждешь.(2024).WEB-DL.(1080).Files-x\01.Когда любовь совсем не ждешь.(2024).WEB-DL.(1080p).by.Серый1779.Files-x.mkv
Format : Matroska
Format version : Version 2
File size : 1.31 GiB
Duration : 47 min 58 s
Overall bit rate : 3 912 kb/s
Encoded date : UTC 2024-03-31 02:31:59
Writing application : mkvmerge v7.8.0 ('River Man') 32bit built on Apr 3 2015 12:11:22
Writing library : libebml v1.3.1 + libmatroska v1.4.2
Video
ID : 1
Format : AVC
Format/Info : Advanced Video Codec
Format profile : High@L4.1
Format settings : CABAC / 4 Ref Frames
Format settings, CABAC : Yes
Format settings, RefFrames : 4 frames
Format settings, GOP : M=4, N=50
Codec ID : V_MPEG4/ISO/AVC
Duration : 47 min 58 s
Bit rate : 3 642 kb/s
Width : 1 920 pixels
Height : 1 080 pixels
Display aspect ratio : 16:9
Frame rate mode : Constant
Frame rate : 25.000 FPS
Standard : PAL
Color space : YUV
Chroma subsampling : 4:2:0
Bit depth : 8 bits
Scan type : Progressive
Bits/(Pixel*Frame) : 0.070
Stream size : 1.22 GiB (93%)
Default : Yes
Forced : No
Color range : Limited
Color primaries : BT.709
Transfer characteristics : BT.709
Matrix coefficients : BT.709
Audio
ID : 2
Format : AC-3
Format/Info : Audio Coding 3
Format settings, Endianness : Big
Codec ID : A_AC3
Duration : 47 min 58 s
Bit rate mode : Constant
Bit rate : 192 kb/s
Channel(s) : 2 channels
Channel positions : Front: L R
Sampling rate : 48.0 kHz
Frame rate : 31.250 FPS (1536 SPF)
Bit depth : 16 bits
Compression mode : Lossy
Stream size : 65.9 MiB (5%)
Service kind : Complete Main
Default : Yes
Forced : No
Релиз от:

Release was prepared by RG Files-x

[Profile] [PM]
Display posts:    
Reply to topic

Current time is: 24-Apr 09:55

All times are UTC + 3



You cannot post new topics in this forum
You cannot reply to topics in this forum
You cannot edit your posts in this forum
You cannot delete your posts in this forum
You cannot vote in polls in this forum
You cannot attach files in this forum
You cannot download files in this forum