Ванильное небо [1 сезон: 1-4 серии из 4] (2024) WEB-DLRip от Files-x

Reply to topic
 
Author Message

Nicodem ®

Gender: Male

Longevity: 5 years 5 months

Posts: 1423

Post 01-Apr-2024 21:39

[Quote]

Ванильное небо
Год выпуска: 2024
Жанр: Мелодрама, комедия
Выпущено: Россия, ООО "АВК продакшн" по заказу ООО "Epic Media"
Режиссер: Валентин Донсков
В ролях: Анна Воркуева, Михаил Грищенко, Дмитрий Бурукин, Светлана Листова, Василий Мичков, Юлия Яблонская, Ольга Мюнхаузен
О фильме: Катя ведёт феминистическую программу "Женщина. Супер" на радиостанции «Ванильное небо». Но рейтинги программы падают из-за оголтелого феминизма Кати. Программный директор радиостанции Кира назначает соведущим Кате "профессионального мачо" – видеоблогера Боба. Откровенно шовинистический настрой Боба шокируют Катю, но рейтинги программы взлетают до небес.

Качество: WEB-DLRip
Видео: XviD, ~ 1623 Кбит/с, 720x400, 25 кадр/с
Аудио: AC3, 2 ch, 192 Кбит/с
Продолжительность: 4 х 00:23:00
Перевод: Не требуется
Субтитры: Русские

Скриншоты



MediaInfo

General
Complete name : C:01.Ванильное небо.s01.E01.(2024).WEB-DLRip.by.Nicodem.Files-x.avi
Format : AVI
Format/Info : Audio Video Interleave
File size : 300 MiB
Duration : 22mn 59s
Overall bit rate : 1 824 Kbps
Writing application : VirtualDubMod 1.5.10.3 | www.virtualdub-fr.org || (build 2550/release)
Writing library : VirtualDubMod build 2550/release
Video
ID : 0
Format : MPEG-4 Visual
Format profile : Advanced Simple@L5
Format settings, BVOP : 1
Format settings, QPel : No
Format settings, GMC : No warppoints
Format settings, Matrix : Custom
Codec ID : XVID
Codec ID/Hint : XviD
Duration : 22mn 59s
Bit rate : 1 623 Kbps
Width : 720 pixels
Height : 400 pixels
Display aspect ratio : 16:9
Frame rate : 25.000 fps
Color space : YUV
Chroma subsampling : 4:2:0
Bit depth : 8 bits
Scan type : Progressive
Compression mode : Lossy
Bits/(Pixel*Frame) : 0.225
Stream size : 267 MiB (89%)
Writing library : XviD 73
Audio
ID : 1
Format : AC-3
Format/Info : Audio Coding 3
Mode extension : CM (complete main)
Codec ID : 2000
Duration : 22mn 59s
Bit rate mode : Constant
Bit rate : 192 Kbps
Channel(s) : 2 channels
Channel positions : Front: L R
Sampling rate : 48.0 KHz
Bit depth : 16 bits
Compression mode : Lossy
Stream size : 31.6 MiB (11%)
Alignment : Split accross interleaves
Interleave, duration : 40 ms (1.00 video frame)
Interleave, preload duration : 500 ms

Раздача ведётся путём добавления новых серий

Внимание! Раздача ведётся путём добавления новых серий; при каждом добавлении создаётся новый торрент.
Чтобы начать докачку новой серии, пользователям необходимо сделать следующее:
1. Остановить скачивание;
2. Удалить старый торрент у себя из клиента (старые серии удалять не надо);
3. Скачать новый торрент и запустить его у себя в клиенте вместо старого, при этом указать клиенту путь в старую папку куда и должно происходить скачивание новых серий. Ваш клиент при этом должен произвести хеширование (проверку) старой папки и будет докачивать только те серии, которых у вас ещё нет. Старые серии при этом не удаляются, а продолжают раздаваться! Eсли вы уже удалили старые серии, то предотвратить повторную закачку старых серий можно, отжав галочку в соответствующих местах при запуске нового торрента.
Релиз от:

Release was prepared by RG Files-x

Related releases "Ванильное небо" (1):
Added Topic title Size
31 Mar 24  Ванильное небо [1-4 серии из 4] (2024) WEB-DLRip-AVC от Files-x 1.29 GB
Find all related releases Ванильное небо
[Profile] [PM]
Display posts:    
Reply to topic

Current time is: 24-Apr 08:55

All times are UTC + 3



You cannot post new topics in this forum
You cannot reply to topics in this forum
You cannot edit your posts in this forum
You cannot delete your posts in this forum
You cannot vote in polls in this forum
You cannot attach files in this forum
You cannot download files in this forum