Цирк! (Сальто-мортале) [1-17 серии из 17] (2024) WEB-DL 720p от Files-x

Reply to topic
 
Author Message

bond74 ®

Gender: Male

Longevity: 5 years 5 months

Posts: 2365

Post 02-Apr-2024 00:11

[Quote]

Цирк! (Сальто-мортале)
Год выпуска: 2024
Жанр: Комедия, приключения
Выпущено: Россия, Кинокомпания "Art Pictures Vision", "Black Box Production"
Режиссер: Миша Маралес, Артём Ларин (II)
В ролях: Егор Кирячок, Иван Злобин, Илья Сигалов, Виталий Хаев, Николай Добрынин, Владимир Стержаков, Елена Валюшкина, Сергей Чирков, Тина Стойилкович, Сергей Рост, Максим Литовченко, Артём Бобцов, Артём Муратов, Ульяна Молдованова, Светлана Листова
О фильме: Детдомовца Тимофея, бабника Севу и неженку Валика, который и шага не сделает без матери, отправляют в цирк на исправительные работы. Выполнять нестандартные задачи тройка нарушителей будет под присмотром директора, завхоза, бывшего моряка, дрессировщика-мачо, иллюзиониста-мажора и других цирковых. Парням предстоит найти сбежавшего слона, стать мишенью метательницы ножей и жертвой фокусника, летать под куполом, убегать от разъярённых тигра и медведя и совершать другие безумства.
Качество: WEB-DL 720p
Видео:MPEG-4 AVC, ~ 2000 Кбит/с, 1280x720, 25 кадр/с
Аудио: AC3, 2 ch, 192 Кбит/с
Продолжительность: 5 х ~ 00:24:45
Перевод: Не требуется
Субтитры: Нет

Скриншоты




MediaInfo

General
Unique ID : 214375326944892392338026774465460572919 (0xA1472FA78863AB00A2A7A753E9DC12F7)
Complete name : C:\films\Цирк. 2024 .WEB-DL 720p.Files-x\03. Цирк. 2024 .WEB-DL 720p.Files-x.mkv
Format : Matroska
Format version : Version 4
File size : 408 MiB
Duration : 25 min 8 s
Overall bit rate : 2 268 kb/s
Frame rate : 25.000 FPS
Encoded date : 2024-04-01 19:34:48 UTC
Writing application : mkvmerge v7.8.0 ('River Man') 32bit built on Apr 3 2015 12:11:22
Writing library : libebml v1.3.1 + libmatroska v1.4.2
Video
ID : 1
Format : AVC
Format/Info : Advanced Video Codec
Format profile : High@L4.1
Format settings : CABAC / 4 Ref Frames
Format settings, CABAC : Yes
Format settings, Reference frames : 4 frames
Format settings, GOP : M=4, N=50
Codec ID : V_MPEG4/ISO/AVC
Duration : 25 min 8 s
Bit rate : 2 074 kb/s
Width : 1 280 pixels
Height : 720 pixels
Display aspect ratio : 16:9
Active Format Description : Full frame 16:9 image
Frame rate mode : Constant
Frame rate : 25.000 FPS
Standard : PAL
Color space : YUV
Chroma subsampling : 4:2:0
Bit depth : 8 bits
Scan type : Progressive
Bits/(Pixel*Frame) : 0.090
Stream size : 373 MiB (91%)
Default : Yes
Forced : No
Color range : Limited
Color primaries : BT.709
Transfer characteristics : BT.709
Matrix coefficients : BT.709
Audio
ID : 2
Format : AC-3
Format/Info : Audio Coding 3
Commercial name : Dolby Digital
Codec ID : A_AC3
Duration : 25 min 8 s
Bit rate mode : Constant
Bit rate : 192 kb/s
Channel(s) : 2 channels
Channel layout : L R
Sampling rate : 48.0 kHz
Frame rate : 31.250 FPS (1536 SPF)
Compression mode : Lossy
Stream size : 34.5 MiB (8%)
Service kind : Complete Main
Default : Yes
Forced : No

Внимание! Раздача ведётся путём добавления новых серий

Раздача ведётся путём добавления новых серий, при каждом добавлении создаётся новый торрент. Чтобы начать докачку новой серии, пользователям необходимо сделать следующее:
- Остановить скачивание.
- Удалить старый торрент у себя из клиента (старые серии удалять не надо).
- Скачать новый торрент и запустить его у себя в клиенте вместо старого, при этом указать клиенту путь в старую папку куда и должно происходить скачивание новых серий.
Ваш клиент при этом должен произвести хеширование (проверку) старой папки (если не производит сам - помогите ему сделать это), и будет докачивать только те серии которых у вас ещё нет. Старые серии при этом не удаляются, а продолжают раздаваться!
Релиз от:

Release was prepared by RG Files-x

[Profile] [PM]
Display posts:    
Reply to topic

Current time is: 24-Apr 09:15

All times are UTC + 3



You cannot post new topics in this forum
You cannot reply to topics in this forum
You cannot edit your posts in this forum
You cannot delete your posts in this forum
You cannot vote in polls in this forum
You cannot attach files in this forum
You cannot download files in this forum