Мы эхо друг друга [1-4 серии из 4] (2024) WEB-DL 1080p от Files-x

Reply to topic
 
Author Message

Серый1779 ®

Gender: Male

Longevity: 5 years 5 months

Posts: 3519

Location: Украина

Post 02-Apr-2024 00:17

[Quote]

Мы эхо друг друга
Год выпуска: 2024
Жанр: Мелодрама, драма
Выпущено: Россия, Кинокомпания "Сигма"
Режиссер: Влад Николаев
В ролях: Юлия Горохова, Никита Абдулов, Михаил Маликов, Иван Николаев, Андрей Коник, Наталия Дербенева, Ольга Новосад, Дмитрий Сафронов, Роман Мигурский, Татьяна Сидорова
О фильме: После аварии Анна начинает видеть странные сны, где она успешна и желанна, живет яркой и красивой жизнью с другим мужем. Сны кажутся настолько реальными, что влияют на ее настоящую жизнь. Все меняется, когда Аня встречает человека из своих снов. Она проводит расследование и выясняет, что у нее есть сестра-близнец Юля, которая недавно разбилась на вертолете. Все считают Юлю погибшей, но не Аня. В компании спасателя Сергея, который может стать либо самой большой ее любовью, либо самым большим разочарованием в жизни, девушка отправляется на поиски сестры и двоих мужчин, связанных с ней, в лес, над которым потерпел крушение вертолет. Анна даже не подозревает, что один из них – убийца…

Качество: WEB-DL 1080p
Видео: MPEG-4 AVC, ~ 3767 Кбит/с, 1920x1080, 25 кадр/с
Аудио: AC3, 2 ch, 192 Кбит/с
Продолжительность: 4 х ~ 00:47:43
Перевод: Не требуется
Субтитры: Нет

Скриншоты




MediaInfo

General
Unique ID : 215642438406053273935002655087810846868 (0xA23B3912A41BB01DB7CACB0C59AC2094)
Complete name : D:\Мы эхо друг друга.2024.WEB-DL 1080p.Files-x\01. Мы эхо друг друга.2024.WEB-DL 1080p.Files-x.mkv
Format : Matroska
Format version : Version 4 / Version 2
File size : 1.34 GiB
Duration : 47 min 43 s
Overall bit rate : 4 028 kb/s
Encoded date : UTC 2024-03-31 06:37:10
Writing application : mkvmerge v7.8.0 ('River Man') 32bit built on Apr 3 2015 12:11:22
Writing library : libebml v1.3.1 + libmatroska v1.4.2
Video
ID : 1
Format : AVC
Format/Info : Advanced Video Codec
Format profile : High@L4.1
Format settings : CABAC / 4 Ref Frames
Format settings, CABAC : Yes
Format settings, RefFrames : 4 frames
Format settings, GOP : M=4, N=50
Codec ID : V_MPEG4/ISO/AVC
Duration : 47 min 43 s
Bit rate : 3 835 kb/s
Width : 1 920 pixels
Height : 1 080 pixels
Display aspect ratio : 16:9
Frame rate mode : Constant
Frame rate : 25.000 FPS
Standard : PAL
Color space : YUV
Chroma subsampling : 4:2:0
Bit depth : 8 bits
Scan type : Progressive
Bits/(Pixel*Frame) : 0.074
Stream size : 1.28 GiB (95%)
Default : Yes
Forced : No
Color range : Limited
Color primaries : BT.709
Transfer characteristics : BT.709
Matrix coefficients : BT.709
Audio
ID : 2
Format : AC-3
Format/Info : Audio Coding 3
Format settings, Endianness : Big
Codec ID : A_AC3
Duration : 47 min 43 s
Bit rate mode : Constant
Bit rate : 192 kb/s
Channel(s) : 2 channels
Channel positions : Front: L R
Sampling rate : 48.0 kHz
Frame rate : 31.250 FPS (1536 SPF)
Bit depth : 16 bits
Compression mode : Lossy
Stream size : 65.5 MiB (5%)
Service kind : Complete Main
Default : Yes
Forced : No

Внимание! Раздача ведётся путём добавления новых серий

Раздача ведётся путём добавления новых серий, при каждом добавлении создаётся новый торрент. Чтобы начать докачку новой серии, пользователям необходимо сделать следующее:
- Остановить скачивание.
- Удалить старый торрент у себя из клиента (старые серии удалять не надо).
- Скачать новый торрент и запустить его у себя в клиенте вместо старого, при этом указать клиенту путь в старую папку куда и должно происходить скачивание новых серий.
Ваш клиент при этом должен произвести хеширование (проверку) старой папки (если не производит сам - помогите ему сделать это), и будет докачивать только те серии которых у вас ещё нет. Старые серии при этом не удаляются, а продолжают раздаваться!
Релиз от:

Release was prepared by RG Files-x

[Profile] [PM]
Display posts:    
Reply to topic

Current time is: 24-Apr 08:23

All times are UTC + 3



You cannot post new topics in this forum
You cannot reply to topics in this forum
You cannot edit your posts in this forum
You cannot delete your posts in this forum
You cannot vote in polls in this forum
You cannot attach files in this forum
You cannot download files in this forum