Казачок [1-8 серии из 8] (2024) WEB-DLRip от Files-x

Reply to topic
 
Author Message

bond74 ®

Gender: Male

Longevity: 5 years 5 months

Posts: 2365

Post 02-Apr-2024 13:46

[Quote]

Казачок
Год выпуска: 2024
Жанр: Приключения, комедия
Выпущено: Россия, SVERDЛOVSK, ТНТ
Режиссер: Игорь Зайцев
В ролях: Алексей Лукин, Алексей Кравченко, Николай Шрайбер, Георгий Дронов, Виталий Кищенко, Владимир Епифанцев, Виктория Разумовская, Александр Новиков (II), Константин Мирошников, Алексей Макаров, Олеся Судзиловская, Марина Лебедева, Юлия Бедарева, Роман Юнусов
О фильме: Родители отправляют школьника Стёпу на летние каникулы в деревню к бабушке - в качестве наказания. Здесь он вынужден отказаться от современных технологических благ и жить по правилам деревни. Убегая в очередной раз от местных подростков, Степа пытается спрятаться в колодце, но проваливается в него. Выбравшись наружу, он осознает, что оказался в настоящей казачьей станице 17-го века. В важнейший исторический момент нашей страны. По воле судьбы, Стёпа многому научится у своих далеких предков, найдёт настоящих друзей и на практике освоит заваленный в школе урок истории.
Качество: WEB-DLRip
Видео: XviD, ~ 1600 Кбит/с, 720x400, 25 кадр/с
Аудио: AC3, 2 ch, 192 Кбит/с
Продолжительность: 3 x ~ 00:24:05
Перевод: Не требуется
Субтитры: Нет

Скриншоты



MediaInfo

General
Complete name : D:\films\Казачок.2024.WEB-DLRip.Files-x\02. Казачок.2024.WEB-DLRip.Files-x.avi
Format : AVI
Format/Info : Audio Video Interleave
Format settings : BitmapInfoHeader / WaveFormatEx
File size : 304 MiB
Duration : 24 min 7 s
Overall bit rate : 1 762 kb/s
Frame rate : 25.000 FPS
Writing application : VirtualDubMod 1.5.10.3 | www.virtualdub-fr.org || (build 2550/release)
Writing library : VirtualDubMod build 2550/release
Video
ID : 0
Format : MPEG-4 Visual
Format profile : Advanced Simple@L5
Format settings : BVOP1 / Custom Matrix
Format settings, BVOP : 1
Format settings, QPel : No
Format settings, GMC : No warppoints
Format settings, Matrix : Custom
Codec ID : XVID
Codec ID/Hint : XviD
Duration : 24 min 7 s
Bit rate : 1 560 kb/s
Width : 720 pixels
Height : 400 pixels
Display aspect ratio : 16:9
Frame rate : 25.000 FPS
Color space : YUV
Chroma subsampling : 4:2:0
Bit depth : 8 bits
Scan type : Progressive
Compression mode : Lossy
Bits/(Pixel*Frame) : 0.217
Stream size : 269 MiB (89%)
Writing library : XviD 73
Audio
ID : 1
Format : AC-3
Format/Info : Audio Coding 3
Commercial name : Dolby Digital
Codec ID : 2000
Duration : 24 min 7 s
Bit rate mode : Constant
Bit rate : 192 kb/s
Channel(s) : 2 channels
Channel layout : L R
Sampling rate : 48.0 kHz
Frame rate : 31.250 FPS (1536 SPF)
Compression mode : Lossy
Stream size : 33.1 MiB (11%)
Alignment : Split across interleaves
Interleave, duration : 40 ms (1.00 video frame)
Interleave, preload duration : 500 ms
Service kind : Complete Main

Внимание! Раздача ведётся путём добавления новых серий

Раздача ведётся путём добавления новых серий, при каждом добавлении создаётся новый торрент. Чтобы начать докачку новой серии, пользователям необходимо сделать следующее:
- Остановить скачивание.
- Удалить старый торрент у себя из клиента (старые серии удалять не надо).
- Скачать новый торрент и запустить его у себя в клиенте вместо старого, при этом указать клиенту путь в старую папку куда и должно происходить скачивание новых серий.
Ваш клиент при этом должен произвести хеширование (проверку) старой папки (если не производит сам - помогите ему сделать это), и будет докачивать только те серии которых у вас ещё нет. Старые серии при этом не удаляются, а продолжают раздаваться!
Релиз от:

Release was prepared by RG Files-x

[Profile] [PM]
Display posts:    
Reply to topic

Current time is: 24-Apr 08:47

All times are UTC + 3



You cannot post new topics in this forum
You cannot reply to topics in this forum
You cannot edit your posts in this forum
You cannot delete your posts in this forum
You cannot vote in polls in this forum
You cannot attach files in this forum
You cannot download files in this forum