Невеста. Экстра любовь [1 сезон: 1-5 выпуск] (2024) WEBRip от Files-x

Reply to topic
 
Author Message

bond74 ®

Gender: Male

Longevity: 5 years 6 months

Posts: 2399

Post 07-Apr-2024 19:42

[Quote]

Невеста. Экстра любовь Год выпуска: 2024
Жанр: ТВ-шоу, реалити-шоу
Выпущено: Россия, ТНТ
В ролях:
Константин Гецати, Илья Ларионов, Александра Волкова, Ольга Мегарская, Алиса Кретова, Юлия Верховская, Карина Аракелян, Елизавета Адаменко, Ольга Шарыпова
О фильме: Новое шоу, в котором экстрасенс Константин Гецати отправится на поиски своей судьбы. Всегда сдержанный и справедливый, высокий, красивый и благородный, Константин Гецати после победы в 18-м сезоне «Битвы экстрасенсов» стал мечтой тысяч девушек по всей стране. Но до сих пор ни одна из них так и не смогла занять достойное место в его сердце. На кастинг в новый проект было подано несколько тысяч заявок. Но познакомиться с Константином Гецати смогут лишь 26 девушек. Уже после первой встречи Константин выберет 16 претенденток, среди которых и будет искать свою вторую половину в жарком и мистическом Марокко. Зрителей ждут невероятные локации, красивые свидания и, конечно, магия любви. Какими качествами должна обладать невеста экстрасенса? Должны ли у нее тоже быть мистические способности? Как можно растопить сердце аланского медиума? И сможет ли Константин Гецати разглядеть свою вторую половину?
Качество: WEBRip
Видео: XviD, ~ 1600 Кбит/с, 720x400, 25 кадр/с
Аудио: AC3, 2 ch, 192 Кбит/с
Продолжительность:3 x ~ 02:26:00
Перевод: Не требуется [Русский]
Cубтитры: Нет

Скриншоты




MediaInfo

General
Complete name : C:\films\Невеста. Экстра любовь.2024.WEB-DLRip.Files-x\02. Невеста. Экстра любовь.2024.WEB-DLRip.Files-x.avi
Format : AVI
Format/Info : Audio Video Interleave
Format settings : BitmapInfoHeader / WaveFormatEx
File size : 902 MiB
Duration : 1 h 10 min
Overall bit rate : 1 799 kb/s
Frame rate : 25.000 FPS
Writing application : VirtualDubMod 1.5.10.3 | www.virtualdub-fr.org || (build 2550/release)
Writing library : VirtualDubMod build 2550/release
Video
ID : 0
Format : MPEG-4 Visual
Format profile : Advanced Simple@L5
Format settings : BVOP1 / Custom Matrix
Format settings, BVOP : 1
Format settings, QPel : No
Format settings, GMC : No warppoints
Format settings, Matrix : Custom
Codec ID : XVID
Codec ID/Hint : XviD
Duration : 1 h 10 min
Bit rate : 1 597 kb/s
Width : 720 pixels
Height : 400 pixels
Display aspect ratio : 16:9
Frame rate : 25.000 FPS
Color space : YUV
Chroma subsampling : 4:2:0
Bit depth : 8 bits
Scan type : Progressive
Compression mode : Lossy
Bits/(Pixel*Frame) : 0.222
Stream size : 800 MiB (89%)
Writing library : XviD 73
Audio
ID : 1
Format : AC-3
Format/Info : Audio Coding 3
Commercial name : Dolby Digital
Codec ID : 2000
Duration : 1 h 10 min
Bit rate mode : Constant
Bit rate : 192 kb/s
Channel(s) : 2 channels
Channel layout : L R
Sampling rate : 48.0 kHz
Frame rate : 31.250 FPS (1536 SPF)
Compression mode : Lossy
Stream size : 96.2 MiB (11%)
Alignment : Split across interleaves
Interleave, duration : 40 ms (1.00 video frame)
Interleave, preload duration : 500 ms
Service kind : Complete Main

Внимание! Раздача ведётся путём добавления новых серий

Раздача ведётся путём добавления новых серий, при каждом добавлении создаётся новый торрент. Чтобы начать докачку новой серии, пользователям необходимо сделать следующее:
- Остановить скачивание.
- Удалить старый торрент у себя из клиента (старые серии удалять не надо).
- Скачать новый торрент и запустить его у себя в клиенте вместо старого, при этом указать клиенту путь в старую папку куда и должно происходить скачивание новых серий.
Ваш клиент при этом должен произвести хеширование (проверку) старой папки (если не производит сам - помогите ему сделать это), и будет докачивать только те серии которых у вас ещё нет. Старые серии при этом не удаляются, а продолжают раздаваться!
Релиз от:

Release was prepared by RG Files-x

[Profile] [PM]
Display posts:    
Reply to topic

Current time is: 27-May 19:29

All times are UTC + 3



You cannot post new topics in this forum
You cannot reply to topics in this forum
You cannot edit your posts in this forum
You cannot delete your posts in this forum
You cannot vote in polls in this forum
You cannot attach files in this forum
You cannot download files in this forum