Орлинская. Козни амура [3 сезон: 1-4 серии из 4] (2024) WEB-DLRip-AVC от Files-х

Reply to topic
 
Author Message

Серый1779 ®

Gender: Male

Longevity: 5 years 7 months

Posts: 3606

Location: Украина

Post 10-Apr-2024 14:28

[Quote]

Орлинская. Козни амура
Год выпуска: 2024
Жанр: Детектив
Выпущено: Россия, Кинокомпания «ПРИОР Продакшн»
Режиссер: Алексей Праздников
В ролях: Олеся Железняк, Олег Андреев, Александр Кульков, Денис Юров, Светлана Терентьева, Олег Метелев, Кристина Арабина, Алексей Батанин, Ксения Асмоловская, Мирослава Санаева, Мария Гусева, Андрей Мокеев, Ирина Хруль, Максим Василенко, Александр Румянцев, Дмитрий Корепин, Лана Долева
О фильме: Новое дерзкое преступление совершено в Лиманске: ограблен и сожжен склад вещественных доказательств прямо в здании полиции. И первой подозреваемой становится лучшая оперативница города – Марина Орлинская. Грабители, которые решились так нагло ее подставить, хорошо знали Марину, но недооценили ее хватку. Не верили, что она пойдет по следу до конца. На самом деле, Орлинская берет не один, а два следа. Один, самый очевидный, ведет напрямую к одному из главных бандитов города. Второй, пустяковый и нелепый, упирается в ссору двух местных жителей из-за Венеры Лиманской – статуи, много лет украшавшей местную набережную. Надо ли говорить, что Марина не ищет легких путей? Конечно, она выбирает второй след. И не представляет, какой удар ждет ее в конце этой звериной тропы...
Качество: WEB-DLRip-AVC
Видео: MPEG-4 AVC, ~ 1600 Кбит/с, 1024x576, 25 кадр/с
Аудио: AC3, 2 ch, 192 Кбит/с
Продолжительность: 4 х ~ 00:44:13
Перевод: Не требуется
Субтитры: Нет

Скриншоты



MediaInfo

General
Unique ID : 217232323678970399054661705903698842600 (0xA36D6C7802B05026BB8FDD2FFC3793E8)
Complete name : F:\Орлинская. Козни амура.S03.(2024).WEB-DLRip.(AVC).Files-x\01.Орлинская.Козни.Амура.S03.(2024).WEB-DLRip.(AVC).by.Серый1779.Files-x.mkv
Format : Matroska
Format version : Version 2
File size : 567 MiB
Duration : 44 min 13 s
Overall bit rate : 1 794 kb/s
Encoded date : UTC 2024-04-10 08:53:36
Writing application : mkvmerge v7.8.0 ('River Man') 32bit built on Apr 3 2015 12:11:22
Writing library : libebml v1.3.1 + libmatroska v1.4.2
Video
ID : 1
Format : AVC
Format/Info : Advanced Video Codec
Format profile : High@L4.1
Format settings : CABAC / 9 Ref Frames
Format settings, CABAC : Yes
Format settings, RefFrames : 9 frames
Codec ID : V_MPEG4/ISO/AVC
Duration : 44 min 13 s
Bit rate : 1 600 kb/s
Width : 1 024 pixels
Height : 576 pixels
Display aspect ratio : 16:9
Frame rate mode : Constant
Frame rate : 25.000 FPS
Color space : YUV
Chroma subsampling : 4:2:0
Bit depth : 8 bits
Scan type : Progressive
Bits/(Pixel*Frame) : 0.109
Stream size : 495 MiB (87%)
Writing library : x264 core 146 r2538 121396c
Encoding settings : cabac=1 / ref=9 / deblock=1:-2:-1 / analyse=0x3:0x133 / me=umh / subme=9 / psy=1 / psy_rd=1.00:0.15 / mixed_ref=1 / me_range=32 / chroma_me=1 / trellis=2 / 8x8dct=1 / cqm=0 / deadzone=21,11 / fast_pskip=0 / chroma_qp_offset=-3 / threads=18 / lookahead_threads=3 / sliced_threads=0 / nr=0 / decimate=1 / interlaced=0 / bluray_compat=0 / constrained_intra=0 / bframes=9 / b_pyramid=2 / b_adapt=2 / b_bias=0 / direct=1 / weightb=1 / open_gop=0 / weightp=2 / keyint=250 / keyint_min=25 / scenecut=40 / intra_refresh=0 / rc=2pass / mbtree=0 / bitrate=1600 / ratetol=1.0 / qcomp=0.60 / qpmin=0 / qpmax=69 / qpstep=4 / cplxblur=20.0 / qblur=0.5 / ip_ratio=1.40 / pb_ratio=1.30 / aq=2:1.00
Default : Yes
Forced : No
Color range : Limited
Color primaries : BT.709
Transfer characteristics : BT.709
Matrix coefficients : BT.709
Audio
ID : 2
Format : AC-3
Format/Info : Audio Coding 3
Format settings, Endianness : Big
Codec ID : A_AC3
Duration : 44 min 13 s
Bit rate mode : Constant
Bit rate : 192 kb/s
Channel(s) : 2 channels
Channel positions : Front: L R
Sampling rate : 48.0 kHz
Frame rate : 31.250 FPS (1536 SPF)
Bit depth : 16 bits
Compression mode : Lossy
Stream size : 60.7 MiB (11%)
Service kind : Complete Main
Default : Yes
Forced : No

Раздача ведётся путём добавления новых серий

Внимание! Раздача ведётся путём добавления новых серий; при каждом добавлении создаётся новый торрент.
Чтобы начать докачку новой серии, пользователям необходимо сделать следующее:
1. Остановить скачивание;
2. Удалить старый торрент у себя из клиента (старые серии удалять не надо);
3. Скачать новый торрент и запустить его у себя в клиенте вместо старого, при этом указать клиенту путь в старую папку куда и должно происходить скачивание новых серий. Ваш клиент при этом должен произвести хеширование (проверку) старой папки и будет докачивать только те серии, которых у вас ещё нет. Старые серии при этом не удаляются, а продолжают раздаваться! Eсли вы уже удалили старые серии, то предотвратить повторную закачку старых серий можно, отжав галочку в соответствующих местах при запуске нового торрента.
Релиз от:

Release was prepared by RG Files-x

[Profile] [PM]
Display posts:    
Reply to topic

Current time is: 24-Jun 07:07

All times are UTC + 3



You cannot post new topics in this forum
You cannot reply to topics in this forum
You cannot edit your posts in this forum
You cannot delete your posts in this forum
You cannot vote in polls in this forum
You cannot attach files in this forum
You cannot download files in this forum