Чикатило [3 сезон: 1-8 серии из 8] (2024) WEB-DLRip от Files-x

Reply to topic
 
Author Message

bond74 ®

Gender: Male

Longevity: 5 years 7 months

Posts: 2420

Post 19-Apr-2024 07:18

[Quote]

Тень Чикатило
Год выпуска: 2024
Жанр: Триллер, детектив, драма, криминал, реальные события
Выпущено: Россия, Кинокомпания «Ökko Studios»
Режиссер: Сарик Андреасян
В ролях: Дмитрий Нагиев, Николай Козак, Дмитрий Власкин, Константин Лавроненко, Юлия Афанасьева, Виталий Кищенко, Евгений Шириков, Олег Каменщиков, Карэн Бадалов, Виктория Богатырёва, Алексей Кирсанов, Елизавета Моряк, Марк Богатырёв, Елизавета Говорова, Олег Евтеев, Александр Булатов
О фильме: Финальный сезон художественного сериала, в основу которого легла история двойной жизни самого известного маньяка Советского Союза Андрея Чикатило и расследования его преступлений. СССР, середина 80-х годов. В стране началась Перестройка, правительством заявлены перемены, но на местах до этого еще очень далеко. Маньяк, известный в народе как «Ростовский потрошитель», продолжает совершать преступления, и следственные группы полковника Ковалева и прибывшего на смену Кесаеву полковника Брагина прикладывают все усилия, чтобы вычислить его, однако между коллегами нет согласия и слаженности. Давнее противостояние вновь набирает обороты.

Качество: WEB-DLRip
Видео: XviD, ~ 1600 Кбит/с, 720x304, 25 кадр/с
Аудио: AC3, 2 ch, 192 Кбит/с
Продолжительность: 4 х ~ 00:57:00
Перевод: Не требуется
Субтитры: Русские

Скриншоты


MediaInfo

General
Complete name : D:\films\Чикатило.s03.2024.WEB-DLRip.Files-x\02. Чикатило.s03.2024.WEB-DLRip.Files-x.avi
Format : AVI
Format/Info : Audio Video Interleave
Format settings : BitmapInfoHeader / WaveFormatEx
File size : 637 MiB
Duration : 37 min 34 s
Overall bit rate : 2 371 kb/s
Frame rate : 25.000 FPS
Writing application : VirtualDubMod 1.5.10.3 | www.virtualdub-fr.org || (build 2550/release)
Writing library : VirtualDubMod build 2550/release
Video
ID : 0
Format : MPEG-4 Visual
Format profile : Advanced Simple@L5
Format settings : BVOP1 / Custom Matrix
Format settings, BVOP : 1
Format settings, QPel : No
Format settings, GMC : No warppoints
Format settings, Matrix : Custom
Codec ID : XVID
Codec ID/Hint : XviD
Duration : 37 min 34 s
Bit rate : 1 588 kb/s
Width : 720 pixels
Height : 304 pixels
Display aspect ratio : 2.35:1
Frame rate : 25.000 FPS
Color space : YUV
Chroma subsampling : 4:2:0
Bit depth : 8 bits
Scan type : Progressive
Compression mode : Lossy
Bits/(Pixel*Frame) : 0.290
Stream size : 427 MiB (67%)
Writing library : XviD 73
Audio #1
ID : 1
Format : AC-3
Format/Info : Audio Coding 3
Commercial name : Dolby Digital
Codec ID : 2000
Duration : 37 min 34 s
Bit rate mode : Constant
Bit rate : 384 kb/s
Channel(s) : 6 channels
Channel layout : L R C LFE Ls Rs
Sampling rate : 48.0 kHz
Frame rate : 31.250 FPS (1536 SPF)
Compression mode : Lossy
Stream size : 103 MiB (16%)
Alignment : Split across interleaves
Interleave, duration : 40 ms (1.00 video frame)
Interleave, preload duration : 500 ms
Service kind : Complete Main
Audio #2
ID : 2
Format : AC-3
Format/Info : Audio Coding 3
Commercial name : Dolby Digital
Codec ID : 2000
Duration : 37 min 34 s
Bit rate mode : Constant
Bit rate : 384 kb/s
Channel(s) : 6 channels
Channel layout : L R C LFE Ls Rs
Sampling rate : 48.0 kHz
Frame rate : 31.250 FPS (1536 SPF)
Compression mode : Lossy
Stream size : 103 MiB (16%)
Alignment : Split across interleaves
Interleave, duration : 40 ms (1.00 video frame)
Interleave, preload duration : 500 ms
Title : 18+
Service kind : Complete Main

Внимание! Раздача ведётся путём добавления новых серий

Раздача ведётся путём добавления новых серий, при каждом добавлении создаётся новый торрент. Чтобы начать докачку новой серии, пользователям необходимо сделать следующее:
- Остановить скачивание.
- Удалить старый торрент у себя из клиента (старые серии удалять не надо).
- Скачать новый торрент и запустить его у себя в клиенте вместо старого, при этом указать клиенту путь в старую папку куда и должно происходить скачивание новых серий.
Ваш клиент при этом должен произвести хеширование (проверку) старой папки (если не производит сам - помогите ему сделать это), и будет докачивать только те серии которых у вас ещё нет. Старые серии при этом не удаляются, а продолжают раздаваться!
Релиз от:

Release was prepared by RG Files-x

[Profile] [PM]
Display posts:    
Reply to topic

Current time is: 24-Jun 06:46

All times are UTC + 3



You cannot post new topics in this forum
You cannot reply to topics in this forum
You cannot edit your posts in this forum
You cannot delete your posts in this forum
You cannot vote in polls in this forum
You cannot attach files in this forum
You cannot download files in this forum