Без прикрытия [1-4 серии из 4] (2022) WEB-DLRip-AVC от Generalfilm | КПК

Reply to topic
 
Author Message

GORGIK ®

Gender: Male

Longevity: 5 years 6 months

Posts: 1532

Location: СССР

Post 23-Apr-2024 09:32

[Quote]

Без прикрытия Год выпуска: 2022
Жанр: Детектив
Выпущено: Россия, Кинокомпания "Триикс Медиа" по заказу Пятого канала
Режиссер: Андрей Коршунов
В ролях: Михаил Тарабукин, Оксана Скакун, Нодар Джанелидзе, Алина Марфина, Евгений Антонов, Иван Васильев, Игорь Ключников, Маргарита Бычкова, Евгений Терских, Антон Сычёв, Андрей Коровниченко, Светлана Бакулина, Дарья Бакулина, Сергей Воробьёв (II), Вячеслав Аркунов, Павел Харизанов, Всеволод Богомольный, Сергей Бледных, Дмитрий Соловьёв (II), Алексей Труфанов, Алексей Бостон, Сергей Мишанин, Александр Марушев, Андрей Мокеев, Полина Воронова, Андрей Шаповал, Евгений Акимов (II), Василий Юркевич, Алексей Голев, Николай Колосов, Виталий Бисеров
О фильме: В основе сюжета проекта история двух братьев близнецов. Один – первоклассный вор Богдан Вольный, любит свободу и живет по понятиям. А второй, Григорий – оперативник в полиции. Карьера не сложилась, коллеги им помыкают, "друзья" кидают на деньги, а криминал, с которым Гриша должен бороться, совсем его не боится.

Качество: WEB-DLRip-AVC
Видео: MPEG-4 AVC (x264), 640x360, ~ 500 kbps, 25.000 fps
Аудио: AAC LC, 48.0 KHz, 2 ch, 128 Kbps
Продолжительность: 4 х ~ 00:41:00
Перевод: Не требуется [Русский]
Cубтитры: нет

Скриншоты


MediaInfo

Complete name : D:\кино\Bez.Prikrytiya.S01.2022.WEB-DLRip-AVC.KPK.GF\Bez.Prikrytiya.s01e02.2022.WEB-DLRip-AVC.KPK.GF.mp4
Format : MPEG-4
Codec ID : M4V (isom/iso2/avc1)
File size : 190 MiB
Duration : 41mn 52s
Overall bit rate mode : Variable
Overall bit rate : 633 Kbps
Writing application : Lavf53.19.0
Video
ID : 1
Format : AVC
Format/Info : Advanced Video Codec
Format profile : High@L4.1
Format settings, CABAC : Yes
Format settings, ReFrames : 8 frames
Codec ID : avc1
Codec ID/Info : Advanced Video Coding
Duration : 41mn 52s
Bit rate : 500 Kbps
Width : 640 pixels
Height : 360 pixels
Display aspect ratio : 16:9
Frame rate mode : Constant
Frame rate : 25.000 fps
Color space : YUV
Chroma subsampling : 4:2:0
Bit depth : 8 bits
Scan type : Progressive
Bits/(Pixel*Frame) : 0.087
Stream size : 150 MiB (79%)
Writing library : x264 core 146 r2538 121396c
Encoding settings : cabac=1 / ref=8 / deblock=1:-1:-1 / analyse=0x3:0x133 / me=umh / subme=10 / psy=1 / psy_rd=1.00:0.00 / mixed_ref=1 / me_range=24 / chroma_me=1 / trellis=2 / 8x8dct=1 / cqm=0 / deadzone=21,11 / fast_pskip=1 / chroma_qp_offset=-2 / threads=3 / lookahead_threads=1 / sliced_threads=0 / nr=0 / decimate=1 / interlaced=0 / bluray_compat=0 / constrained_intra=0 / bframes=8 / b_pyramid=2 / b_adapt=2 / b_bias=0 / direct=3 / weightb=1 / open_gop=0 / weightp=2 / keyint=250 / keyint_min=126 / scenecut=40 / intra_refresh=0 / rc_lookahead=40 / rc=2pass / mbtree=1 / bitrate=500 / ratetol=1.0 / qcomp=0.60 / qpmin=0 / qpmax=69 / qpstep=4 / cplxblur=20.0 / qblur=0.5 / ip_ratio=1.40 / aq=1:1.00
Menus : 3
Audio
ID : 2
Format : AAC
Format/Info : Advanced Audio Codec
Format profile : LC
Codec ID : 40
Duration : 41mn 52s
Bit rate mode : Variable
Bit rate : 128 Kbps
Channel(s) : 2 channels
Channel positions : Front: L R
Sampling rate : 48.0 KHz
Frame rate : 46.875 fps (1024 spf)
Compression mode : Lossy
Stream size : 38.2 MiB (20%)
Default : Yes
Alternate group : 1
Menus : 3
Релиз от:
[Profile] [PM]
Display posts:    
Reply to topic

Current time is: 27-May 18:37

All times are UTC + 3



You cannot post new topics in this forum
You cannot reply to topics in this forum
You cannot edit your posts in this forum
You cannot delete your posts in this forum
You cannot vote in polls in this forum
You cannot attach files in this forum
You cannot download files in this forum