Мосгаз. Дело №10: Метроном [10 сезон: 1-8 серия из 8] (2024) WEBRip-AVC от Files-x

Reply to topic
 
Author Message

Серый1779 ®

Gender: Male

Longevity: 5 years 6 months

Posts: 3587

Location: Украина

Post 29-Apr-2024 11:25

[Quote]

Мосгаз. Дело №10: Метроном Оригинальное название: Мосгаз. Дело №10. Метроном
Год выпуска: 2024
Жанр: Детектив, криминал
Выпущено: Россия, Кинокомпания "Студия Русский проект", Okko Studios
Режиссер: Евгений Звездаков
В ролях: Марина Александрова, Алексей Бардуков, Александр Голубев, Андрей Мерзликин, Игорь Золотовицкий, Сергей Шакуров, Фёдор Лавров, Артур Ваха, Эдуард Чекмазов, Андрей Смоляков
О фильме: 1982 год. Соня Тимофеева, Алексей Гаркуша и Егор Осадчий теперь сами по себе, а амбициозный майор Виктор Ковалев пытается занять пустующее место руководителя оперативной группы. Тем временем в Москве прямо во время выступления погибает известный эстрадный артист и сотрудник Москонцерта Андрей Гринякин. Все указывает на то, что кто-то пытается «замять» это дело. Соня Тимофеева в тайне от всех начинает вести свое расследование. Понять, что происходит в Москонцерте, пытается и Ковалев. Очевидно, что подпольную деятельность Москонцерта покрывают влиятельные люди. События разворачиваются стремительно: один за другим погибают участники преступной схемы директора Москонцерта Ольшевского.

Качество: WEBRip-AVC
Видео: MPEG-4 AVC, ~ 1600 Кбит/с, 1024x576, 25 кадр/с
Аудио: AC3, 2 ch, 192 Кбит/с
Продолжительность: 8 х ~ 00:50:34
Перевод: Не требуется
Cубтитры: Русские

Скриншоты



MediaInfo

General
Unique ID : 115652360531050097301765177661760578206 (0x5701D59D1C8D9EDAD4F9060D5481A29E)
Complete name : F:\Мосгаз. Дело №10. Метроном.S10.(2024).WEBRip.(AVC).Files-x\01.Мосгаз. Дело №10. Метроном.S10.(2024).WEBRip.(AVC).by.Серый1779.Files-x.mkv
Format : Matroska
Format version : Version 4 / Version 2
File size : 647 MiB
Duration : 50 min 34 s
Overall bit rate : 1 789 kb/s
Encoded date : UTC 2024-05-08 08:00:30
Writing application : mkvmerge v32.0.0 ('Astral Progressions') 64-bit
Writing library : libebml v1.3.7 + libmatroska v1.5.0
Video
ID : 1
Format : AVC
Format/Info : Advanced Video Codec
Format profile : High@L4.1
Format settings : CABAC / 9 Ref Frames
Format settings, CABAC : Yes
Format settings, RefFrames : 9 frames
Codec ID : V_MPEG4/ISO/AVC
Duration : 50 min 34 s
Bit rate : 1 600 kb/s
Width : 1 024 pixels
Height : 576 pixels
Display aspect ratio : 16:9
Frame rate mode : Constant
Frame rate : 25.000 FPS
Color space : YUV
Chroma subsampling : 4:2:0
Bit depth : 8 bits
Scan type : Progressive
Bits/(Pixel*Frame) : 0.109
Stream size : 577 MiB (89%)
Writing library : x264 core 146 r2538 121396c
Encoding settings : cabac=1 / ref=9 / deblock=1:-2:-1 / analyse=0x3:0x133 / me=umh / subme=9 / psy=1 / psy_rd=1.00:0.15 / mixed_ref=1 / me_range=32 / chroma_me=1 / trellis=2 / 8x8dct=1 / cqm=0 / deadzone=21,11 / fast_pskip=0 / chroma_qp_offset=-3 / threads=18 / lookahead_threads=3 / sliced_threads=0 / nr=0 / decimate=1 / interlaced=0 / bluray_compat=0 / constrained_intra=0 / bframes=9 / b_pyramid=2 / b_adapt=2 / b_bias=0 / direct=1 / weightb=1 / open_gop=0 / weightp=2 / keyint=250 / keyint_min=25 / scenecut=40 / intra_refresh=0 / rc=2pass / mbtree=0 / bitrate=1600 / ratetol=1.0 / qcomp=0.60 / qpmin=0 / qpmax=69 / qpstep=4 / cplxblur=20.0 / qblur=0.5 / ip_ratio=1.40 / pb_ratio=1.30 / aq=2:1.00
Language : English
Default : Yes
Forced : No
Color range : Limited
Color primaries : BT.709
Transfer characteristics : BT.709
Matrix coefficients : BT.709
Audio
ID : 2
Format : AC-3
Format/Info : Audio Coding 3
Format settings, Endianness : Big
Codec ID : A_AC3
Duration : 50 min 34 s
Bit rate mode : Constant
Bit rate : 192 kb/s
Channel(s) : 2 channels
Channel positions : Front: L R
Sampling rate : 48.0 kHz
Frame rate : 31.250 FPS (1536 SPF)
Bit depth : 16 bits
Compression mode : Lossy
Stream size : 69.4 MiB (11%)
Service kind : Complete Main
Default : Yes
Forced : No
Text
ID : 3
Format : UTF-8
Codec ID : S_TEXT/UTF8
Codec ID/Info : UTF-8 Plain Text
Duration : 48 min 51 s
Bit rate : 97 b/s
Count of elements : 704
Stream size : 35.0 KiB (0%)
Language : Russian
Default : No
Forced : No

Внимание! Раздача ведётся путём добавления новых серий

Раздача ведётся путём добавления новых серий, при каждом добавлении создаётся новый торрент. Чтобы начать докачку новой серии, пользователям необходимо сделать следующее:
- Остановить скачивание.
- Удалить старый торрент у себя из клиента (старые серии удалять не надо).
- Скачать новый торрент и запустить его у себя в клиенте вместо старого, при этом указать клиенту путь в старую папку куда и должно происходить скачивание новых серий.
Ваш клиент при этом должен произвести хеширование (проверку) старой папки (если не производит сам - помогите ему сделать это), и будет докачивать только те серии которых у вас ещё нет. Старые серии при этом не удаляются, а продолжают раздаваться!
Релиз от:

Release was prepared by RG Files-x

Related releases "Мосгаз" (10):
Added Topic title Size
22 May 24  МосГаз [1-10 сезон: 1-82 серии из 82] (2012-2024) WEB-DLRip, WEBRip от Generalfilm | КПК 2 15.66 GB
15 May 24  Мосгаз. Дело №10: Метроном [1-8 серии из 8] (2024) WEBRip от Files-x 1 5 GB
5 May 23  Мосгаз. Последнее дело майора Черкасова [9 сезон: 1-8 серия из 8] (2023) WEBRip-AVC от Files-x 5.08 GB
22 Nov 21  МосГаз. Дело № 8. Западня [8 сезон: 1-8 серии из 8] (2021) WEB-DLRip от Files-x 5.05 GB
22 Nov 21  МосГаз. Дело № 8. Западня [8 сезон: 1-8 серии из 8] (2021) WEB-DLRip-AVC от Files-x 5.05 GB
22 Nov 21  МосГаз. Дело № 8. Западня [8 сезон: 1-8 серии из 8] (2021) WEB-DLRip-AVC от Files-x 5.04 GB
23 Oct 20  Мосгаз. Новое дело майора Черкасова. Катран [1-8 серии из 8] (2020) WEB-DLRip от Files-x 5.01 GB
23 Oct 20  МосГаз (Коллекция) [1-6 части: 1-50 серии из 50] (2012-2019) WEB-DL 1080p 88.71 GB
23 Oct 20  Мосгаз. Новое дело майора Черкасова. Катран [1-8 серия из 8] (2020) WEB-DLRip-AVC от Files-x 1 4.99 GB
23 Oct 20  Мосгаз. Новое дело майора Черкасова. Катран [1-8 серии из 8] (2020) WEB-DLRip от GeneralFilm 4.35 GB
Find all related releases Мосгаз
[Profile] [PM]

Серый1779 ®

Gender: Male

Longevity: 5 years 6 months

Posts: 3587

Location: Украина

Post 15-May-2024 09:51 (after 15 days)

[Quote]

Добавлены субтитры во все серии.
[Profile] [PM]
Display posts:    
Reply to topic

Current time is: 27-May 19:45

All times are UTC + 3



You cannot post new topics in this forum
You cannot reply to topics in this forum
You cannot edit your posts in this forum
You cannot delete your posts in this forum
You cannot vote in polls in this forum
You cannot attach files in this forum
You cannot download files in this forum