Костолом / Ruthless (2023) BDRip 1080p | Leff Sound | КинопоискHD

Reply to topic
 
Author Message

HardwareMining ®

Gender: Male

Longevity: 4 years 7 months

Posts: 611

Post 09-May-2024 10:43

[Quote]

Костолом / Ruthless
«Ломаю кости. Потом задаю вопросы» Год выпуска: 2023
Жанр: боевик, триллер
Выпущено: США | Al Bravo Films, AXI-ON, BondIt, Premiere Entertainment Group, Revisilagi Vfx Studio
Режиссер: Арт Камачо
В ролях: Дермот Малруни, Джефф Фэйи, Ману Интирэйми, Тексас Бэттл, Мелисса Диас, Анджелика ДеЧавес, Маурисио Мендоса, Тонанцин Эспарса, Нико Фостер, Кесия Роблз
О фильме:
В жизни Гарри произошла трагедия: его дочь была похищена и убита. Разочаровавшись в правосудии, он решает действовать самостоятельно. Гарри выходит на след банды, связанной с похищениями девушек, и собирается мстить. А методы у него жесткие — сначала ломает кости, потом задает вопросы.

Качество: BDRip 1080p
Видео: AVC, 1920x800 (2.40:1), 23,976 fps, 8030 Kbit/s (0.218 bit/pixel)
Аудио: русский, AC3, 5.1, 48 kHz, 448 kbps CBR
Продолжительность: 01:32:45
Перевод: Дублированный | Leff Sound | КинопоискHD
Субтитры: Отсутствуют

Скриншоты

MediaInfo

General
Unique ID : 222357286219002573681343470601222917818 (0xA74874A16D6772AA9AC936F7F7D28EBA)
Complete name : E:\GF\Ruthless.2023.BDRip.1080p.Rip.by.HardwareMining.R.G.Generalfilm.mkv
Format : Matroska
Format version : Version 4
File size : 5.50 GiB
Duration : 1 h 32 min
Overall bit rate : 8 482 kb/s
Frame rate : 23.976 FPS
Movie name : Ruthless.2023.BDRip.1080p.Rip.by.HardwareMining.R.G.Generalfilm
Encoded date : 2024-05-09 07:17:20 UTC
Writing application : mkvmerge v6.8.0 ('Theme for Great Cities') 32bit built on Mar 2 2014 21:27:07
Writing library : libebml v1.3.0 + libmatroska v1.4.1
Cover : Yes
Attachments : cover0.png
Video
ID : 1
Format : AVC
Format/Info : Advanced Video Codec
Format profile : High@L4.1
Format settings : CABAC / 4 Ref Frames
Format settings, CABAC : Yes
Format settings, Reference frames : 4 frames
Codec ID : V_MPEG4/ISO/AVC
Duration : 1 h 32 min
Bit rate : 8 030 kb/s
Width : 1 920 pixels
Height : 800 pixels
Display aspect ratio : 2.40:1
Frame rate mode : Constant
Frame rate : 23.976 FPS
Color space : YUV
Chroma subsampling : 4:2:0
Bit depth : 8 bits
Scan type : Progressive
Bits/(Pixel*Frame) : 0.218
Stream size : 5.10 GiB (93%)
Writing library : x264 core 130 r2273 b3065e6
Encoding settings : cabac=1 / ref=4 / deblock=1:-2:-1 / analyse=0x3:0x133 / me=umh / subme=10 / psy=1 / psy_rd=1.00:0.08 / mixed_ref=1 / me_range=32 / chroma_me=1 / trellis=2 / 8x8dct=1 / cqm=0 / deadzone=21,11 / fast_pskip=0 / chroma_qp_offset=-3 / threads=48 / lookahead_threads=6 / sliced_threads=0 / nr=0 / decimate=1 / interlaced=0 / bluray_compat=0 / constrained_intra=0 / bframes=11 / b_pyramid=2 / b_adapt=2 / b_bias=0 / direct=3 / weightb=1 / open_gop=0 / weightp=2 / keyint=250 / keyint_min=25 / scenecut=40 / intra_refresh=0 / rc=2pass / mbtree=0 / bitrate=8030 / ratetol=1.0 / qcomp=0.60 / qpmin=0 / qpmax=69 / qpstep=4 / cplxblur=20.0 / qblur=0.5 / ip_ratio=1.40 / pb_ratio=1.30 / aq=2:1.00
Language : English
Default : Yes
Forced : No
Color range : Limited
Color primaries : BT.709
Transfer characteristics : BT.709
Matrix coefficients : BT.709
Audio
ID : 2
Format : AC-3
Format/Info : Audio Coding 3
Commercial name : Dolby Digital
Codec ID : A_AC3
Duration : 1 h 32 min
Bit rate mode : Constant
Bit rate : 448 kb/s
Channel(s) : 6 channels
Channel layout : L R C LFE Ls Rs
Sampling rate : 48.0 kHz
Frame rate : 31.250 FPS (1536 SPF)
Compression mode : Lossy
Stream size : 297 MiB (5%)
Title : Dub | KP - Leff Sound
Language : Russian
Service kind : Complete Main
Default : Yes
Forced : No
Dialog Normalization : -31 dB
cmixlev : -3.0 dB
surmixlev : -6 dB
dialnorm_Average : -31 dB
dialnorm_Minimum : -31 dB
dialnorm_Maximum : -31 dB
Menu
00:00:00.000 : en:Chapter 01
00:05:00.717 : en:Chapter 02
00:14:33.789 : en:Chapter 03
00:22:54.456 : en:Chapter 04
00:33:29.632 : en:Chapter 05
00:41:00.875 : en:Chapter 06
00:51:09.566 : en:Chapter 07
00:56:54.869 : en:Chapter 08
01:05:50.780 : en:Chapter 09
01:13:32.408 : en:Chapter 10
01:19:39.941 : en:Chapter 11
01:30:18.162 : en:Chapter 1
Релиз от:
[Profile] [PM]
Display posts:    
Reply to topic

Current time is: 27-May 18:34

All times are UTC + 3



You cannot post new topics in this forum
You cannot reply to topics in this forum
You cannot edit your posts in this forum
You cannot delete your posts in this forum
You cannot vote in polls in this forum
You cannot attach files in this forum
You cannot download files in this forum