Запасный выход [1-2 сезоны: 1-19 фильм из 19] (2020-2023) HDTVRip от Files-x

Reply to topic
 
Author Message

Nicodem ®

Gender: Male

Longevity: 5 years 6 months

Posts: 1431

Post 15-May-2024 02:19

[Quote]

Запасный выход
Год выпуска: 2020-2023
Жанр: Детектив, комедия, медицина
Выпущено: Россия, ВайТ Медиа по заказу НТВ
Режиссер: Сергей Чекалов, Виктор Конисевич
В ролях: Юрий Стоянов, Роман Мадянов, Даниил Вахрушев, Юлия Галкина, Сергей Погосян, Олег Алмазов, Александр Андриенко, Наталья Тищенко, Алексей Дмитриев, Дмитрий Костяев, Николай Качура, Кирилл Ковбас, Николай Ковбас, Руслан Хабибуллов, Андрей Шалин, Елена Ветрова, Борис Эстрин, Григорий Анашкин, Заза Чантурия, Роман Хан, Анна Ардова, Мария Староторжская, Станислав Ярушин, Михаил Васьков, Александр Коротков, Дарья Юркова, Ярослав Ефременко, Макс Уральский, Александр Андриенко, Денис Яковлев, Руслан Булатов
О фильме: В судебно-медицинском морге провинциальной больницы работают два санитара – бывший уголовник-рецидивист Пал Палыч Шишко (Юрий Стоянов) и бывший оперуполномоченный Николай Иванович Кедров (Роман Мадянов). Они совершенно разные, недолюбливают друг друга, а на людях общаются подчёркнуто официально. Их объединяет только работа. Однажды в морге появляется молодой следователь – старший лейтенант Дмитрий Сайкин (Данил Вахрушев). В управлении его считают неудачником и вешают на него самые безнадёжные дела. Но всё меняется, когда Сайкин становится свидетелем того, как Кедров и Шишко несколькими фразами разбивают выводы эксперта и не только устанавливают точное место, время и способ убийства, но и детально описывают внешность убийцы, назвав в конце его имя. А лавры отдают Сайкину...

Качество: HDTVRip
Видео: XviD, ~ 1719 Кбит/с, 720x400, 25 кадр/с
Аудио: AC3, 2 ch, 192 Кбит/с
Продолжительность: 3 x ~ 01:05:10; 16 x ~ 00:50:50
Перевод: Не требуется
Cубтитры: нет

Скриншоты



MediaInfo

General
Complete name : C:01.Запасный выход.s01.E01 (Дело № 1 Отелло).(2020).HDTVRip.by.Nicodem.Files-x.avi
Format : AVI
Format/Info : Audio Video Interleave
File size : 895 MiB
Duration : 1h 5mn
Overall bit rate : 1 921 Kbps
Writing application : VirtualDubMod 1.5.10.3 | www.virtualdub-fr.org || (build 2550/release)
Writing library : VirtualDub build 35491/release
Video
ID : 0
Format : MPEG-4 Visual
Format profile : Advanced Simple@L5
Format settings, BVOP : 1
Format settings, QPel : No
Format settings, GMC : No warppoints
Format settings, Matrix : Custom
Codec ID : XVID
Codec ID/Hint : XviD
Duration : 1h 5mn
Bit rate : 1 719 Kbps
Width : 720 pixels
Height : 400 pixels
Display aspect ratio : 16:9
Frame rate : 25.000 fps
Color space : YUV
Chroma subsampling : 4:2:0
Bit depth : 8 bits
Scan type : Progressive
Compression mode : Lossy
Bits/(Pixel*Frame) : 0.239
Stream size : 801 MiB (89%)
Writing library : XviD 73
Audio
ID : 1
Format : AC-3
Format/Info : Audio Coding 3
Mode extension : CM (complete main)
Codec ID : 2000
Duration : 1h 5mn
Bit rate mode : Constant
Bit rate : 192 Kbps
Channel(s) : 2 channels
Channel positions : Front: L R
Sampling rate : 48.0 KHz
Bit depth : 16 bits
Compression mode : Lossy
Stream size : 89.5 MiB (10%)
Alignment : Split accross interleaves
Interleave, duration : 40 ms (1.00 video frame)
Interleave, preload duration : 500 ms

Содержание

1 СЕЗОН
Дело № 1 Отелло
Дело № 2 Да Винчи
Дело № 3 Сирано Де Бержерак
2 СЕЗОН
Дело № 4 Сделка
Дело № 5 Ритуальное убийство
Дело № 6 Реконструктор
Дело № 7 Источник информации
Дело № 8 Вендетта
Дело № 9 Аскорбинка
Дело № 10 VIP-Клиент
Дело № 11 Ревность
Дело № 12 Шрам
Дело № 13 Шоковая теропия
Дело № 14 Опознание
Дело № 15 Эвакуация
Дело № 16 О в кусах не спорят
Дело № 17 Одна голова хорошо, а две - лучше
Дело № 18 Нумизмат
Дело № 19 Face to face

Раздача ведётся путём добавления новых серий

Внимание! Раздача ведётся путём добавления новых серий; при каждом добавлении создаётся новый торрент.
Чтобы начать докачку новой серии, пользователям необходимо сделать следующее:
1. Остановить скачивание;
2. Удалить старый торрент у себя из клиента (старые серии удалять не надо);
3. Скачать новый торрент и запустить его у себя в клиенте вместо старого, при этом указать клиенту путь в старую папку куда и должно происходить скачивание новых серий. Ваш клиент при этом должен произвести хеширование (проверку) старой папки и будет докачивать только те серии, которых у вас ещё нет. Старые серии при этом не удаляются, а продолжают раздаваться! Eсли вы уже удалили старые серии, то предотвратить повторную закачку старых серий можно, отжав галочку в соответствующих местах при запуске нового торрента.
Релиз от:

Release was prepared by RG Files-x

[Profile] [PM]
Display posts:    
Reply to topic

Current time is: 27-May 19:49

All times are UTC + 3



You cannot post new topics in this forum
You cannot reply to topics in this forum
You cannot edit your posts in this forum
You cannot delete your posts in this forum
You cannot vote in polls in this forum
You cannot attach files in this forum
You cannot download files in this forum