Инъекция любви [1-8 серии из 8] (2024) WEB-DLRip от Generalfilm | КПК

Reply to topic
 
Author Message

mjjhec ®

Gender: Male

Longevity: 5 years 6 months

Posts: 2175

Location: СССР

Post 15-May-2024 15:45

[Quote]

Инъекция любви Год выпуска: 2024
Выпущено: Россия, Кинокомпания "AVK Production"
Режиссер: Валентин Донсков
В ролях: Татьяна Чердынцева, Иван Жидков, Дмитрий Пчела, Александр Андриенко, Алина Воронцова, Дмитрий Захаров, Татьяна Черкасова, Дмитрий Гладышев, Евгения Синицкая, Юлия Жигалина, Ольга Демидова, Сергей Масленников, Сергей Ершов, Анжей Новоселов, Юлия Дробот, Елена Любимова, Наталья Винокурова, Алиса Соловьёва, Алёна Савчук, Дарья Пахоменко, Юлий Голубцов, Сергей Колесник, Нелли Огнева.
О фильме: Все мечты и надежды на счастье молодого хирурга Анны Пироговой рушатся в одночасье: в разгар медового месяца она узнает, что у мужа есть вторая семья – от него беременна одна из пациенток больницы, а ближайшая подруга и коллега Анны все знала и скрыла от нее. Столкнувшись с полным непониманием матери, которая считает, что Кирилл любит Анну и они прекрасная пара, девушка решает уехать к отцу, с которым не виделась больше десяти лет. Однако переезд в маленький город не решает проблемы, а только обостряет их. Между Анной и ее отцом возникают конфликты и нет взаимопонимания. Разбираясь с медицинскими проблемами своих пациентов, Анна невольно вовлекается в их личные истории и шаг за шагом приходит к гармонии с собой и окружающим миром.
Качество: WEB-DLRip | КПК
Видео: H.264, 640x360 (16:9), 25 fps, 400 kb/s
Аудио: AAC, 48 kHz, 2 ch, 128 kb/s
Продолжительность: 8 x ~00:48:00
Перевод: Не требуется

Скриншоты


MediaInfo

Complete name : F:\Rip\Injektsiya.lubvi.by.mjjhec\03. Инъекция любви.2024.WEB-DLRip.mp4
Format : MPEG-4
Format profile : Base Media
Codec ID : isom (isom/avc1)
File size : 183 MiB
Duration : 48 min 2 s
Overall bit rate mode : Variable
Overall bit rate : 532 kb/s
Frame rate : 25.000 FPS
Encoded date : 2024-05-15 07:05:09 UTC
Tagged date : 2024-05-15 07:05:09 UTC
Video
ID : 1
Format : AVC
Format/Info : Advanced Video Codec
Format profile : High@L4.1
Format settings : CABAC / 14 Ref Frames
Format settings, CABAC : Yes
Format settings, Reference : 14 frames
Codec ID : avc1
Codec ID/Info : Advanced Video Coding
Duration : 48 min 2 s
Bit rate : 400 kb/s
Maximum bit rate : 1 240 kb/s
Width : 640 pixels
Height : 360 pixels
Display aspect ratio : 16:9
Frame rate mode : Constant
Frame rate : 25.000 FPS
Color space : YUV
Chroma subsampling : 4:2:0
Bit depth : 8 bits
Scan type : Progressive
Bits/(Pixel*Frame) : 0.069
Stream size : 137 MiB (75%)
Writing library : x264 core 125 r2208 d9d2288
Encoding settings : cabac=1 / ref=14 / deblock=1:-1:-1 / analyse=0x3:0x113 / me=umh / subme=10 / psy=1 / psy_rd=1.00:0.10 / mixed_ref=1 / me_range=32 / chroma_me=1 / trellis=2 / 8x8dct=1 / cqm=0 / deadzone=21,11 / fast_pskip=0 / chroma_qp_offset=-3 / threads=6 / lookahead_threads=1 / sliced_threads=0 / nr=0 / decimate=0 / interlaced=0 / bluray_compat=0 / constrained_intra=0 / bframes=11 / b_pyramid=2 / b_adapt=2 / b_bias=0 / direct=3 / weightb=1 / open_gop=0 / weightp=2 / keyint=240 / keyint_min=24 / scenecut=40 / intra_refresh=0 / rc=2pass / mbtree=0 / bitrate=400 / ratetol=1.0 / qcomp=0.60 / qpmin=0 / qpmax=69 / qpstep=4 / cplxblur=20.0 / qblur=0.5 / ip_ratio=1.40 / pb_ratio=1.30 / aq=1:1.00
Encoded date : 2024-05-15 07:05:09 UTC
Tagged date : 2024-05-15 07:05:13 UTC
Codec configuration box : avcC
Audio
ID : 2
Format : AAC LC
Format/Info : Advanced Audio Codec Low Complexity
Codec ID : mp4a-40-2
Duration : 48 min 2 s
Bit rate mode : Variable
Bit rate : 128 kb/s
Maximum bit rate : 136 kb/s
Channel(s) : 2 channels
Channel layout : L R
Sampling rate : 48.0 kHz
Frame rate : 46.875 FPS (1024 SPF)
Compression mode : Lossy
Stream size : 44.0 MiB (24%)
Encoded date : 2024-05-15 07:05:12 UTC
Tagged date : 2024-05-15 07:05:13 UTC
Релиз от:
[Profile] [PM]
Display posts:    
Reply to topic

Current time is: 27-May 19:35

All times are UTC + 3



You cannot post new topics in this forum
You cannot reply to topics in this forum
You cannot edit your posts in this forum
You cannot delete your posts in this forum
You cannot vote in polls in this forum
You cannot attach files in this forum
You cannot download files in this forum