За семью печатями [1 сезон: 1-16 серии из 16] (2022) WEBRip 1080p от Files-x

Reply to topic
 
Author Message

Nicodem ®

Gender: Male

Longevity: 5 years 8 months

Posts: 1444

Post 02-Jun-2024 02:43

[Quote]

За семью печатями
Год выпуска: 2022
Жанр: Детектив, мелодрама
Выпущено: Россия, Look Film, ВГТРК
Режиссер: Андрей Селиванов
В ролях: Алёна Бабенко, Софья Синицына, Сергей Астахов, Владимир Фекленко, Руслан Ягудин, Никита Тезин, Владислав Ветров, Анастасия Веденская, Артём Крылов, Павел Кузьмин, Полина Айнутдинова, Екатерина Данилова, Владимир Прудников (V)
О фильме: В детстве Кристину предала родная сестра Анна. После гибели их родителей она стала главой семьи и приняла решение отдать Кристину в детский дом. Но однажды она снова вторгается в жизнь Кристины с неожиданным предложением, и все переворачивается с ног на голову. Теперь Кристине предстоит встать во главе семейного бизнеса и выяснить, кому из своих "чужих родных" она может доверять, а кого ей стоит опасаться

Качество: WEBRip 1080p
Видео: MPEG-4 AVC, ~ 4729 Кбит/с, 1920x1080, 25 кадр/с
Аудио: AC3, 2 ch, 192 Кбит/с
Продолжительность: 16 x ~ 00:49:30
Перевод: Не требуется
Субтитры: Русские

Скриншоты



MediaInfo

General
Unique ID : 249374957110354543120107372247264542791 (0xBB9BDEA67D0813416B4F4808AF304047)
Complete name : C:01.За семью печатями.s01.E01.(2022).WEBRip (1080p).by.Nicodem.Files-x.mkv
Format : Matroska
File size : 1.73 GiB
Duration : 49mn 26s
Overall bit rate : 5 021 Kbps
Encoded date : UTC 2024-06-22 14:44:32
Writing application : mkvmerge v66.0.0 ('Josie') 32-bit
Writing library : libebml v1.4.2 + libmatroska v1.6.4
Video
ID : 1
Format : AVC
Format/Info : Advanced Video Codec
Format profile : High@L4.0
Format settings, CABAC : Yes
Format settings, ReFrames : 2 frames
Codec ID : V_MPEG4/ISO/AVC
Duration : 49mn 26s
Bit rate mode : Variable
Bit rate : 4 730 Kbps
Maximum bit rate : 8 000 Kbps
Width : 1 920 pixels
Height : 1 080 pixels
Display aspect ratio : 16:9
Frame rate : 25.000 fps
Color space : YUV
Chroma subsampling : 4:2:0
Bit depth : 8 bits
Scan type : Progressive
Bits/(Pixel*Frame) : 0.091
Stream size : 1.63 GiB (94%)
Audio
ID : 2
Format : AC-3
Format/Info : Audio Coding 3
Mode extension : CM (complete main)
Codec ID : A_AC3
Duration : 49mn 26s
Bit rate mode : Constant
Bit rate : 192 Kbps
Channel(s) : 2 channels
Channel positions : Front: L R
Sampling rate : 48.0 KHz
Bit depth : 16 bits
Compression mode : Lossy
Delay relative to video : -40ms
Stream size : 67.9 MiB (4%)
Text
ID : 3
Format : UTF-8
Codec ID : S_TEXT/UTF8
Codec ID/Info : UTF-8 Plain Text

Раздача ведётся путём добавления новых серий

Внимание! Раздача ведётся путём добавления новых серий; при каждом добавлении создаётся новый торрент.
Чтобы начать докачку новой серии, пользователям необходимо сделать следующее:
1. Остановить скачивание;
2. Удалить старый торрент у себя из клиента (старые серии удалять не надо);
3. Скачать новый торрент и запустить его у себя в клиенте вместо старого, при этом указать клиенту путь в старую папку куда и должно происходить скачивание новых серий. Ваш клиент при этом должен произвести хеширование (проверку) старой папки и будет докачивать только те серии, которых у вас ещё нет. Старые серии при этом не удаляются, а продолжают раздаваться! Eсли вы уже удалили старые серии, то предотвратить повторную закачку старых серий можно, отжав галочку в соответствующих местах при запуске нового торрента.
Релиз от:

Release was prepared by RG Files-x

[Profile] [PM]

Nicodem ®

Gender: Male

Longevity: 5 years 8 months

Posts: 1444

Post 22-Jun-2024 19:09 (after 20 days)

[Quote]

Внимание!
К сериям 1-7 добавлены субтитры!
Добавлена 8-я серия с субтитрами!
[Profile] [PM]

Nicodem ®

Gender: Male

Longevity: 5 years 8 months

Posts: 1444

Post 27-Jun-2024 01:26 (after 4 days)

[Quote]

Внимание! Добавлены 9-16 серии с субтитрами!
[Profile] [PM]
Display posts:    
Reply to topic

Current time is: 19-Jul 12:39

All times are UTC + 3



You cannot post new topics in this forum
You cannot reply to topics in this forum
You cannot edit your posts in this forum
You cannot delete your posts in this forum
You cannot vote in polls in this forum
You cannot attach files in this forum
You cannot download files in this forum