Светлаков + [1 сезон: 1-10 выпуск] (2024) WEBRip 720p от Files-x

Reply to topic
 
Author Message

bond74 ®

Gender: Male

Longevity: 5 years 7 months

Posts: 2420

Post 09-Jun-2024 18:00

[Quote]

Светлаков + Год выпуска: 2024
Жанр: Комедия, скетчком, скетч-шоу
Выпущено: Россия, ТНТ
Режиссер: Сергей Наумов
В ролях: Сергей Светлаков, Демис Карибидис, Ирина Розанова, Светлана Листова, Артемий Мильграм, Карина Сингх, Влас Кропалов, Алиса Тарасенко, Аслан Цаллати, Илхомджон Абдурахмонов
О фильме: Комедийное скетч-шоу, в котором все главные роли исполняет комик Сергей Светлаков. Легендарные персонажи возвращаются в новых жизненных ситуациях! В прошлом заботливый депутат Юрий Венедиктович теперь мэр маленького городка, подросток Славик вырос и сам обучает сына Димона жизненным урокам во время отдыха. Кроме ставших мемами героев появятся и новые: офисный сотрудник с забавной белкой, блогер-профессионал по выживанию, потомственная гадалка. Вместе с Сергеем Свелаковым в скетчах примут участие Демис Карибидис, Ирина Розанова, Карина Зверева и другие звездные гости.
Качество: WEBRip 720p
Видео: MPEG-4 AVC, ~ 3000 Кбит/с, 1280x720, 25 кадр/с
Аудио: AC3, 2 ch, 192 Кбит/с
Продолжительность:6 x ~ 00:25:00
Перевод: Не требуется [Русский]
Cубтитры: Нет

Скриншоты




MediaInfo

Общее
Уникальный идентификатор : 229472266483937719757781810006056294827 (0xACA2C03DC9433486B0B739DBABE8D9AB)
Полное имя : D:\films\Светлаков +.2024.WEB-DL 720p.Files-x\03. Светлаков +.2024.WEB-DL 720p.Files-x.mkv
Формат : Matroska
Версия формата : Version 4
Размер файла : 502 Мбайт
Продолжительность : 23 м. 1 с.
Режим общего битрейта : Переменный
Общий поток : 3 048 Кбит/сек
Частота кадров : 25,000 кадров/сек
Дата кодирования : 2024-06-01 08:53:02 UTC
Программа кодирования : mkvmerge v7.8.0 ('River Man') 32bit built on Apr 3 2015 12:11:22
Библиотека кодирования : libebml v1.3.1 + libmatroska v1.4.2
Видео
Идентификатор : 1
Формат : AVC
Формат/Информация : Advanced Video Codec
Профиль формата : High@L4.1
Настройки формата : CABAC / 4 Ref Frames
Параметр CABAC формата : Да
Параметр RefFrames формата : 4 кадра
Идентификатор кодека : V_MPEG4/ISO/AVC
Продолжительность : 23 м. 1 с.
Вид битрейта : Переменный
Битрейт : 2 855 Кбит/сек
Максимальный битрейт : 3 000 Кбит/сек
Ширина : 1 280 пикселей
Высота : 720 пикселей
Соотношение сторон : 16:9
Режим частоты кадров : Постоянный
Частота кадров : 25,000 кадров/сек
Цветовое пространство : YUV
Субдискретизация насыщенности : 4:2:0
Битовая глубина : 8 бит
Тип развёртки : Прогрессивная
Бит/(Пиксели*Кадры) : 0.124
Размер потока : 470 Мбайт (94%)
Default : Да
Forced : Нет
Цветовой диапазон : Limited
Основные цвета : BT.709
Характеристики трансфера : BT.709
Коэффициенты матрицы : BT.709
Аудио
Идентификатор : 2
Формат : AC-3
Формат/Информация : Audio Coding 3
Коммерческое название : Dolby Digital
Идентификатор кодека : A_AC3
Продолжительность : 23 м. 1 с.
Вид битрейта : Постоянный
Битрейт : 192 Кбит/сек
Каналы : 2 канала
Channel layout : L R
Частота : 48,0 КГц
Частота кадров : 31,250 кадров/сек (1536 SPF)
Метод сжатия : С потерями
Задержка видео : -120 мс.
Размер потока : 31,6 Мбайт (6%)
Service kind : Complete Main
Default : Да
Forced : Нет

Внимание! Раздача ведётся путём добавления новых серий

Раздача ведётся путём добавления новых серий, при каждом добавлении создаётся новый торрент. Чтобы начать докачку новой серии, пользователям необходимо сделать следующее:
- Остановить скачивание.
- Удалить старый торрент у себя из клиента (старые серии удалять не надо).
- Скачать новый торрент и запустить его у себя в клиенте вместо старого, при этом указать клиенту путь в старую папку куда и должно происходить скачивание новых серий.
Ваш клиент при этом должен произвести хеширование (проверку) старой папки (если не производит сам - помогите ему сделать это), и будет докачивать только те серии которых у вас ещё нет. Старые серии при этом не удаляются, а продолжают раздаваться!
Релиз от:

Release was prepared by RG Files-x

Related releases "Светлаков +" (1):
Added Topic title Size
22 Jun 24  Светлаков + [1 сезон: 1-10 выпуск] (2024) WEBRip от Files-x 2.78 GB
Find all related releases Светлаков +
[Profile] [PM]
Display posts:    
Reply to topic

Current time is: 24-Jun 07:01

All times are UTC + 3



You cannot post new topics in this forum
You cannot reply to topics in this forum
You cannot edit your posts in this forum
You cannot delete your posts in this forum
You cannot vote in polls in this forum
You cannot attach files in this forum
You cannot download files in this forum