Светлаков + [1 сезон: 1-10 выпуск] (2024) WEBRip от Files-x

Reply to topic
 
Author Message

bond74 ®

Gender: Male

Longevity: 5 years 7 months

Posts: 2420

Post 09-Jun-2024 18:07

[Quote]

Светлаков + Год выпуска: 2024
Жанр: Комедия, скетчком, скетч-шоу
Выпущено: Россия, ТНТ
Режиссер: Сергей Наумов
В ролях: Сергей Светлаков, Демис Карибидис, Ирина Розанова, Светлана Листова, Артемий Мильграм, Карина Сингх, Влас Кропалов, Алиса Тарасенко, Аслан Цаллати, Илхомджон Абдурахмонов
О фильме: Комедийное скетч-шоу, в котором все главные роли исполняет комик Сергей Светлаков. Легендарные персонажи возвращаются в новых жизненных ситуациях! В прошлом заботливый депутат Юрий Венедиктович теперь мэр маленького городка, подросток Славик вырос и сам обучает сына Димона жизненным урокам во время отдыха. Кроме ставших мемами героев появятся и новые: офисный сотрудник с забавной белкой, блогер-профессионал по выживанию, потомственная гадалка. Вместе с Сергеем Свелаковым в скетчах примут участие Демис Карибидис, Ирина Розанова, Карина Зверева и другие звездные гости.
Качество: WEBRip
Видео: XviD, ~ 1600 Кбит/с, 720x400, 25 кадр/с
Аудио: AC3, 2 ch, 192 Кбит/с
Продолжительность:6 x ~ 00:25:00
Перевод: Не требуется [Русский]
Cубтитры: Нет

Скриншоты



MediaInfo

Общее
Полное имя : D:\films\Светлаков +.2024.WEB-DLRip.Files-x\02. Светлаков +.2024.WEB-DLRip.Files-x.avi
Формат : AVI
Формат/Информация : Audio Video Interleave
Настройки формата : BitmapInfoHeader / WaveFormatEx
Размер файла : 325 Мбайт
Продолжительность : 26 м. 20 с.
Общий поток : 1 725 Кбит/сек
Частота кадров : 25,000 кадров/сек
Программа кодирования : VirtualDubMod 1.5.10.3 | www.virtualdub-fr.org || (build 2550/release)
Библиотека кодирования : VirtualDubMod build 2550/release
Видео
Идентификатор : 0
Формат : MPEG-4 Visual
Профиль формата : Advanced Simple@L5
Настройки формата : BVOP1 / Custom Matrix
Параметр BVOP формата : 1
Параметр QPel формата : Нет
Параметр GMC формата : Без точки перехода
Параметр матрицы формата : Выборочная
Идентификатор кодека : XVID
Идентификатор кодека/Подсказка : XviD
Продолжительность : 26 м. 20 с.
Битрейт : 1 523 Кбит/сек
Ширина : 720 пикселей
Высота : 400 пикселей
Соотношение сторон : 16:9
Частота кадров : 25,000 кадров/сек
Цветовое пространство : YUV
Субдискретизация насыщенности : 4:2:0
Битовая глубина : 8 бит
Тип развёртки : Прогрессивная
Метод сжатия : С потерями
Бит/(Пиксели*Кадры) : 0.212
Размер потока : 287 Мбайт (88%)
Библиотека кодирования : XviD 73
Аудио
Идентификатор : 1
Формат : AC-3
Формат/Информация : Audio Coding 3
Коммерческое название : Dolby Digital
Идентификатор кодека : 2000
Продолжительность : 26 м. 20 с.
Вид битрейта : Постоянный
Битрейт : 192 Кбит/сек
Каналы : 2 канала
Channel layout : L R
Частота : 48,0 КГц
Частота кадров : 31,250 кадров/сек (1536 SPF)
Метод сжатия : С потерями
Размер потока : 36,2 Мбайт (11%)
Выравнивание : Разделение по промежуткам
Продолжительность промежутка : 40 мс. (1,00 видеокадр)
Время предзагрузки промежутка : 500 мс.
Service kind : Complete Main

Внимание! Раздача ведётся путём добавления новых серий

Раздача ведётся путём добавления новых серий, при каждом добавлении создаётся новый торрент. Чтобы начать докачку новой серии, пользователям необходимо сделать следующее:
- Остановить скачивание.
- Удалить старый торрент у себя из клиента (старые серии удалять не надо).
- Скачать новый торрент и запустить его у себя в клиенте вместо старого, при этом указать клиенту путь в старую папку куда и должно происходить скачивание новых серий.
Ваш клиент при этом должен произвести хеширование (проверку) старой папки (если не производит сам - помогите ему сделать это), и будет докачивать только те серии которых у вас ещё нет. Старые серии при этом не удаляются, а продолжают раздаваться!
Релиз от:

Release was prepared by RG Files-x

Related releases "Светлаков +" (1):
Added Topic title Size
22 Jun 24  Светлаков + [1 сезон: 1-10 выпуск] (2024) WEBRip 720p от Files-x 4.94 GB
Find all related releases Светлаков +
[Profile] [PM]
Display posts:    
Reply to topic

Current time is: 24-Jun 05:39

All times are UTC + 3



You cannot post new topics in this forum
You cannot reply to topics in this forum
You cannot edit your posts in this forum
You cannot delete your posts in this forum
You cannot vote in polls in this forum
You cannot attach files in this forum
You cannot download files in this forum