Варшава'21 (Рашн Гейт) [1-6 серии из 12] (2024) WEBRip от Files-x

Reply to topic
 
Author Message

patriot67 ®

Gender: Male

Longevity: 4 years 7 months

Posts: 312

Post 10-Jun-2024 19:22

[Quote]

Варшава'21 / Рашн Гейт Год выпуска: 2024
Жанр: Детектив, криминал
Выпущено: Россия, Киностудия «Медведь», Okko Studios
Режиссер: Феликс Герчиков
В ролях: Дмитрий Миллер, Дмитрий Куличков, Валерия Шкирандо, Константин Крюков, Сергей Юшкевич, Андрей Ильин, Юрий Батурин, Николай Козак, Анатолий Котенёв, Юрий Беляев, Сергей Гурьев
О фильме: В ходе предвыборной гонки за кресло президента Польши цинично убивают знаменитого журналиста Козельского. Польские телеканалы моментально подхватывают версию о вмешательстве России во внутренние дела страны, с целью поддержки силезских сепаратистов и дестабилизации обстановки. В качестве доказательства по ТВ крутят аудиозапись разговора российского посла Конобеева и одного из кандидатов в президенты Домбровского, которая, якобы, была разослана с почты убитого журналиста. Из небольшой искры раздувается геополитический пожар, способный нанести огромный ущерб интересам страны. Скомпрометированный сотрудник дипмиссии попадает в больницу с инфарктом, а на его место прибывает кризисный дипломат Вячеслав Васильев. Ему предстоит доказать, что обвинения в адрес Москвы не имеют под собой никаких оснований.

Качество: WEBRip
Видео: XviD, ~ 1600 Кбит/с, 720x304, 25 кадр/с
Аудио: AC3, 6 ch, 384 Кбит/с
Продолжительность: 3 х ~ 00:46:03
Перевод: Не требуется
Cубтитры: Нет

Скриншоты


MediaInfo

Общее
Полное имя : D:\films\Варшава'21.2024.WEB-DLRip.Files-x\01. Варшава'21.2024.WEB-DLRip.Files-x.avi
Формат : AVI
Формат/Информация : Audio Video Interleave
Настройки формата : BitmapInfoHeader / WaveFormatEx
Размер файла : 634 Мбайт
Продолжительность : 46 м. 3 с.
Общий поток : 1 923 Кбит/сек
Частота кадров : 25,000 кадров/сек
Программа кодирования : VirtualDubMod 1.5.10.3 | www.virtualdub-fr.org || (build 2550/release)
Библиотека кодирования : VirtualDubMod build 2550/release
Видео
Идентификатор : 0
Формат : MPEG-4 Visual
Профиль формата : Advanced Simple@L5
Настройки формата : BVOP1 / Custom Matrix
Параметр BVOP формата : 1
Параметр QPel формата : Нет
Параметр GMC формата : Без точки перехода
Параметр матрицы формата : Выборочная
Идентификатор кодека : XVID
Идентификатор кодека/Подсказка : XviD
Продолжительность : 46 м. 3 с.
Битрейт : 1 530 Кбит/сек
Ширина : 720 пикселей
Высота : 304 пикселя
Соотношение сторон : 2,35:1
Частота кадров : 25,000 кадров/сек
Цветовое пространство : YUV
Субдискретизация насыщенности : 4:2:0
Битовая глубина : 8 бит
Тип развёртки : Прогрессивная
Метод сжатия : С потерями
Бит/(Пиксели*Кадры) : 0.280
Размер потока : 504 Мбайт (80%)
Библиотека кодирования : XviD 73
Аудио
Идентификатор : 1
Формат : AC-3
Формат/Информация : Audio Coding 3
Коммерческое название : Dolby Digital
Идентификатор кодека : 2000
Продолжительность : 46 м. 3 с.
Вид битрейта : Постоянный
Битрейт : 384 Кбит/сек
Каналы : 6 каналов
Channel layout : L R C LFE Ls Rs
Частота : 48,0 КГц
Частота кадров : 31,250 кадров/сек (1536 SPF)
Метод сжатия : С потерями
Размер потока : 127 Мбайт (20%)
Выравнивание : Разделение по промежуткам
Продолжительность промежутка : 40 мс. (1,00 видеокадр)
Время предзагрузки промежутка : 500 мс.
Service kind : Complete Main

Внимание! Раздача ведётся путём добавления новых серий

Раздача ведётся путём добавления новых серий, при каждом добавлении создаётся новый торрент. Чтобы начать докачку новой серии, пользователям необходимо сделать следующее:
- Остановить скачивание.
- Удалить старый торрент у себя из клиента (старые серии удалять не надо).
- Скачать новый торрент и запустить его у себя в клиенте вместо старого, при этом указать клиенту путь в старую папку куда и должно происходить скачивание новых серий.
Ваш клиент при этом должен произвести хеширование (проверку) старой папки (если не производит сам - помогите ему сделать это), и будет докачивать только те серии которых у вас ещё нет. Старые серии при этом не удаляются, а продолжают раздаваться!
Релиз от:

Release was prepared by RG Files-x

[Profile] [PM]
Display posts:    
Reply to topic

Current time is: 24-Jun 07:06

All times are UTC + 3



You cannot post new topics in this forum
You cannot reply to topics in this forum
You cannot edit your posts in this forum
You cannot delete your posts in this forum
You cannot vote in polls in this forum
You cannot attach files in this forum
You cannot download files in this forum