Алекс Лютый. Дело сирот [3 сезон: 1-10 серии из 10] (2024) WEBRip от Files-x

Reply to topic
 
Author Message

bond74 ®

Gender: Male

Longevity: 5 years 8 months

Posts: 2440

Post 18-Jun-2024 08:08

[Quote]

Алекс Лютый. Дело сирот
Год выпуска: 2024
Жанр: Детектив, исторический фильм, триллер
Выпущено: Россия, Кинокомпания «Амедиа Продакшн» по заказу НТВ
Режиссер: Владимир Нахабцев (мл.)
В ролях: Антон Хабаров, Екатерина Олькина, Эмилия Спивак, Владимир Ярош, Никита Касьяненко, Дмитрий Лебедев (II), Сергей Мардарь, Елена Руфанова, Анна Соколович, Сергей Галич, Валерий Кухарешин, Николай Краснопёров, Владислав Комаров, Оксана Скакун, Даниил Кокин, Александр Удальцов, Андрей Шаповал, Дмитрий Русаков, Саша Орлова, Олег Флеер, Анжелика Плакина, Владимир Кудрявцев (III), Александр Халюта, Наталья Свешникова, Екатерина Зорина, Данил Коловский, Матвей Тимонин, Прасковья Шапиро, Богдан Хорохорин, Юлия Иванова (III), Екатерина Яковлева-Карельская, Ольга Яковлева (II)
О фильме: После самоубийства бывшего руководителя айнзацгруппы СС Манкевича подполковник Андрей Елисеев берётся за розыск военных преступников из его группы. Распутывая цепь загадочных событий прошлого и настоящего, Елисеев вместе с сотрудниками отдела устанавливает, что в августе 1941-го в здании музея располагался отряд карателей Манкевича, где пряталась группа детей из детского дома, брошенная при эвакуации. После соседства с отрядом Манкевича дети исчезли. При помощи секретного архива Алекса Лютого Елисеев узнаёт, кто входил в состав отряда Манкевича. Но все оставшиеся в живых члены отряда гибнут при загадочных обстоятельствах.
Качество: WEBRip
Видео: XviD, ~ 1600 Кбит/с, 720x304, 25 кадр/с
Аудио: AC3, 2 ch, 192 Кбит/с
Продолжительность: 8 x ~ 00:51:28
Перевод: Не требуется
Субтитры: Русские

Скриншоты



MediaInfo

Общее
Полное имя : D:\Алекс Лютый. Дело сирот.S03.(2024).WEBRip.Files-x\01.Алекс Лютый. Дело сирот.S03.(2024).WEBRip.Files-x.avi
Формат : AVI
Формат/Информация : Audio Video Interleave
Настройки формата : BitmapInfoHeader / WaveFormatEx
Размер файла : 658 Мбайт
Продолжительность : 51 м. 28 с.
Общий поток : 1 788 Кбит/сек
Частота кадров : 25,000 кадров/сек
Программа кодирования : VirtualDubMod 1.5.10.3 | www.virtualdub-fr.org || (build 2550/release)
Библиотека кодирования : VirtualDubMod build 2550/release
Видео
Идентификатор : 0
Формат : MPEG-4 Visual
Профиль формата : Advanced Simple@L5
Настройки формата : BVOP1 / Custom Matrix
Параметр BVOP формата : 1
Параметр QPel формата : Нет
Параметр GMC формата : Без точки перехода
Параметр матрицы формата : Выборочная
Идентификатор кодека : XVID
Идентификатор кодека/Подсказка : XviD
Продолжительность : 51 м. 28 с.
Битрейт : 1 587 Кбит/сек
Ширина : 720 пикселей
Высота : 304 пикселя
Соотношение сторон : 2,35:1
Частота кадров : 25,000 кадров/сек
Цветовое пространство : YUV
Субдискретизация насыщенности : 4:2:0
Битовая глубина : 8 бит
Тип развёртки : Прогрессивная
Метод сжатия : С потерями
Бит/(Пиксели*Кадры) : 0.290
Размер потока : 584 Мбайт (89%)
Библиотека кодирования : XviD 73
Аудио
Идентификатор : 1
Формат : AC-3
Формат/Информация : Audio Coding 3
Коммерческое название : Dolby Digital
Идентификатор кодека : 2000
Продолжительность : 51 м. 28 с.
Вид битрейта : Постоянный
Битрейт : 192 Кбит/сек
Каналы : 2 канала
Channel layout : L R
Частота : 48,0 КГц
Частота кадров : 31,250 кадров/сек (1536 SPF)
Метод сжатия : С потерями
Размер потока : 70,7 Мбайт (11%)
Выравнивание : Разделение по промежуткам
Продолжительность промежутка : 40 мс. (1,00 видеокадр)
Время предзагрузки промежутка : 500 мс.
Service kind : Complete Main

Раздача ведётся путём добавления новых серий

Внимание! Раздача ведётся путём добавления новых серий; при каждом добавлении создаётся новый торрент.
Чтобы начать докачку новой серии, пользователям необходимо сделать следующее:
1. Остановить скачивание;
2. Удалить старый торрент у себя из клиента (старые серии удалять не надо);
3. Скачать новый торрент и запустить его у себя в клиенте вместо старого, при этом указать клиенту путь в старую папку куда и должно происходить скачивание новых серий. Ваш клиент при этом должен произвести хеширование (проверку) старой папки и будет докачивать только те серии, которых у вас ещё нет. Старые серии при этом не удаляются, а продолжают раздаваться! Eсли вы уже удалили старые серии, то предотвратить повторную закачку старых серий можно, отжав галочку в соответствующих местах при запуске нового торрента.
Релиз от:

Release was prepared by RG Files-x

[Profile] [PM]
Display posts:    
Reply to topic

Current time is: 19-Jul 12:21

All times are UTC + 3



You cannot post new topics in this forum
You cannot reply to topics in this forum
You cannot edit your posts in this forum
You cannot delete your posts in this forum
You cannot vote in polls in this forum
You cannot attach files in this forum
You cannot download files in this forum