Детство Шелдона / Young Sheldon [5 сезон: 1-22 серии из 22] (2021) WEB-DLRip-AVC от Generalfilm | КПК | Кураж-Бамбей

Reply to topic
 
Author Message

GORGIK ®

Gender: Male

Longevity: 5 years 8 months

Posts: 1572

Location: СССР

Post 22-Jun-2024 09:32

[Quote]

Детство Шелдона / Young Sheldon Год выпуска: 2021
Жанр: Комедия
Выпущено: США, Warner Bros. Television
Режиссер: Майкл Цинберг, Марк Сендроуски, Джон Фавро
В ролях: Иэн Армитедж, Зои Перри, Лэнс Барбер, Монтана Джордан, Реган Реворд, Джим Парсонс, Энни Поттс, Даниэль Пиннок, Док Фэрроу, Валери Махаффей, Брайан Степанек, Уайатт МакКлюр, Мэтт Хобби, Сара Бэйкер, Бриэль Барбаска, Боб Ньюхарт, Рэй Лиотта, Дж. Энтони МакКарти, Илон Маск, Шэрон Фергюсон, Джейсон Кравиц
О фильме: История о непростом детстве вундеркинда Шелдона Купера. Родители юного гения не разделяют увлечения сына наукой: его мать очень религиозна, а отец, бывший футбольный тренер, предпочитает проводить вечера в компании пива и телевизора. Со сверстниками тоже не ладится, ведь Шелдона куда больше детских игрушек интересует, где можно взять обогащённый уран для научных экспериментов. Спин-офф сериала "Теория большого взрыва".

Качество: WEB-DLRip | КПК
Видео: MPEG-4 AVC (x264), 640x360, ~ 500 kbps, 25.000 fps
Аудио: AAC LC, 48.0 KHz, 2 ch, 128 Kbps
Продолжительность: 22 x ~ 00:18:00
Перевод: Профессиональный (одноголосый, закадровый) [Кураж-Бамбей]
Cубтитры: нет

Скриншоты


MediaInfo

Complete name : D:\кино\Detstvo.Sheldona.S05.2021.WEB-DLRip-AVC.KPK.KB.GF\Detstvo.Sheldona.s05e02.2021.WEB-DLRip-AVC.KPK.KB.GF.mp4
Format : MPEG-4
Codec ID : M4V (isom/iso2/avc1)
File size : 84.1 MiB
Duration : 18mn 33s
Overall bit rate mode : Variable
Overall bit rate : 634 Kbps
Writing application : Lavf53.19.0
Video
ID : 1
Format : AVC
Format/Info : Advanced Video Codec
Format profile : High@L4.1
Format settings, CABAC : Yes
Format settings, ReFrames : 8 frames
Codec ID : avc1
Codec ID/Info : Advanced Video Coding
Duration : 18mn 33s
Bit rate : 500 Kbps
Width : 640 pixels
Height : 360 pixels
Display aspect ratio : 16:9
Frame rate mode : Constant
Frame rate : 25.000 fps
Color space : YUV
Chroma subsampling : 4:2:0
Bit depth : 8 bits
Scan type : Progressive
Bits/(Pixel*Frame) : 0.087
Stream size : 66.3 MiB (79%)
Writing library : x264 core 146 r2538 121396c
Encoding settings : cabac=1 / ref=8 / deblock=1:-1:-1 / analyse=0x3:0x133 / me=umh / subme=10 / psy=1 / psy_rd=1.00:0.00 / mixed_ref=1 / me_range=24 / chroma_me=1 / trellis=2 / 8x8dct=1 / cqm=0 / deadzone=21,11 / fast_pskip=1 / chroma_qp_offset=-2 / threads=3 / lookahead_threads=1 / sliced_threads=0 / nr=0 / decimate=1 / interlaced=0 / bluray_compat=0 / constrained_intra=0 / bframes=8 / b_pyramid=2 / b_adapt=2 / b_bias=0 / direct=3 / weightb=1 / open_gop=0 / weightp=2 / keyint=250 / keyint_min=126 / scenecut=40 / intra_refresh=0 / rc_lookahead=40 / rc=2pass / mbtree=1 / bitrate=500 / ratetol=1.0 / qcomp=0.60 / qpmin=0 / qpmax=69 / qpstep=4 / cplxblur=20.0 / qblur=0.5 / ip_ratio=1.40 / aq=1:1.00
Menus : 3
Audio
ID : 2
Format : AAC
Format/Info : Advanced Audio Codec
Format profile : LC
Codec ID : 40
Duration : 18mn 33s
Bit rate mode : Variable
Bit rate : 128 Kbps
Channel(s) : 2 channels
Channel positions : Front: L R
Sampling rate : 48.0 KHz
Frame rate : 46.875 fps (1024 spf)
Compression mode : Lossy
Stream size : 16.9 MiB (20%)
Default : Yes
Alternate group : 1
Menus : 3
Релиз от:
Related releases "Детство Шелдона" (8):
Added Topic title Size
16 Jul 24  Детство Шелдона / Young Sheldon [6 сезон: 1-22 серии из 22] (2022) WEB-DLRip-AVC от Generalfilm | КПК | Кураж-Бамбей 1.88 GB
6 Jun 24  Детство Шелдона / Young Sheldon [4 сезон: 1-18 серии из 18] (2020) WEB-DLRip-AVC от Generalfilm | КПК | Кураж-Бамбей 1.43 GB
25 May 24  Детство Шелдона / Young Sheldon [3 сезон: 1-21 серии из 21] (2019) WEB-DLRip-AVC от Generalfilm | КПК | Кураж-Бамбей 1.82 GB
8 May 20  Детство Шелдона (Молодой Шелдон) / Young Sheldon [3 сезон: 1-21 серии из 21] (2019) WEB-DLRip | Кураж-Бамбей 5.74 GB
29 Apr 20  Детство Шелдона (Молодой Шелдон) / Young Sheldon [2 сезон: 1-22 серии из 22] (2018) WEB-DLRip | Кураж-Бамбей 5.34 GB
29 Apr 20  Детство Шелдона (Молодой Шелдон) / Young Sheldon [1 сезон: 1-22 серии из 22] (2017-2018) WEB-DLRip | Кураж-Бамбей, True Dubbing Studio 8.46 GB
30 Jul 19  Детство Шелдона / Young Sheldon [1-2 сезоны: 1-44 серии из 44] (2017-2019) WEB-DLRip от Generalfilm | КПК | Кураж-Бамбей 3.84 GB
13 Jul 19  Детство Шелдона / Young Sheldon [2 сезон: 1-22 серии из 22] (2018) WEB-DLRip | КПК | Кураж-Бамбей 1.6 GB
Find all related releases Детство Шелдона
[Profile] [PM]

GORGIK ®

Gender: Male

Longevity: 5 years 8 months

Posts: 1572

Location: СССР

Post 16-Jul-2024 15:49 (after 24 days)

[Quote]

+ 21-22-я серии
[Profile] [PM]
Display posts:    
Reply to topic

Current time is: 19-Jul 12:07

All times are UTC + 3



You cannot post new topics in this forum
You cannot reply to topics in this forum
You cannot edit your posts in this forum
You cannot delete your posts in this forum
You cannot vote in polls in this forum
You cannot attach files in this forum
You cannot download files in this forum