Платье цвета моря [1-4 серии из 4] (2023) WEBRip 1080p от Files-x

Reply to topic
 
Author Message

patriot67 ®

Gender: Male

Longevity: 4 years 8 months

Posts: 325

Post 22-Jun-2024 14:33

[Quote]

Платье цвета моря Год выпуска: 2023
Жанр: Мелодрама
Выпущено: Россия, Кинокомпания «Стелла»
Режиссер: Юрий Лейзеров
В ролях: Наталия Селивёрстова, Евгений Воловенко, Евгения Ахременко, Константин Соловьёв, Ольга Чудакова, Михаил Хмуров, Сергей Комаров (II), Юрий Пимкин, Анастасия Морозюк, Пётр Котров, Юлия Апалат
О фильме: Александра после развода все свое внимание сосредоточила на воспитании ребенка и работе. О новых знакомствах она даже не помышляла, а после замужества дочери и вовсе переехала к ней, чтобы помогать по хозяйству и присматривать за внуками. Во время совместного семейного отпуска внимание женщины привлек наряд необычного цвета. Приобретя его, она ощутила, что наконец в ее жизнь начали возвращаться радость и счастье. В те минуты Александра Николаевна даже не подозревала, что очень скоро встретит на курорте свою любовь, и ее мир перевернется на 180 градусов…
Качество: WEBRip 1080p
Видео: MPEG-4 AVC, ~ 4992 Кбит/с, 1920x1080, 25 кадр/с
Аудио: AC3, 2 ch, 192 Кбит/с
Продолжительность: 1 x ~ 02:55:00
Перевод: Не требуется
Cубтитры: Русские

Скриншоты




MediaInfo

Общее
Уникальный идентификатор : 149177188716637792521431651263124863748 (0x703A7B4211BF0EC02F8FCC3553EBFB04)
Полное имя : C:\Платье цвета моря. 2024. WEB-DL 1080p.Files-x.mkv
Формат : Matroska
Версия формата : Version 4
Размер файла : 6,34 Гбайт
Продолжительность : 2 ч. 55 м.
Режим общего битрейта : Переменный
Общий поток : 5 186 Кбит/сек
Частота кадров : 25,000 кадров/сек
Дата кодирования : 2024-06-22 09:26:33 UTC
Программа кодирования : mkvmerge v32.0.0 ('Astral Progressions') 64-bit
Библиотека кодирования : libebml v1.3.7 + libmatroska v1.5.0
Видео
Идентификатор : 1
Формат : AVC
Формат/Информация : Advanced Video Codec
Профиль формата : High@L4
Настройки формата : CABAC / 2 Ref Frames
Параметр CABAC формата : Да
Параметр RefFrames формата : 2 кадра
Идентификатор кодека : V_MPEG4/ISO/AVC
Продолжительность : 2 ч. 55 м.
Вид битрейта : Переменный
Битрейт : 4 992 Кбит/сек
Максимальный битрейт : 8 000 Кбит/сек
Ширина : 1 920 пикселей
Высота : 1 080 пикселей
Соотношение сторон : 16:9
Режим частоты кадров : Постоянный
Частота кадров : 25,000 кадров/сек
Цветовое пространство : YUV
Субдискретизация насыщенности : 4:2:0
Битовая глубина : 8 бит
Тип развёртки : Прогрессивная
Бит/(Пиксели*Кадры) : 0.096
Размер потока : 6,11 Гбайт (96%)
Default : Да
Forced : Нет
Аудио
Идентификатор : 2
Формат : AC-3
Формат/Информация : Audio Coding 3
Коммерческое название : Dolby Digital
Идентификатор кодека : A_AC3
Продолжительность : 2 ч. 55 м.
Вид битрейта : Постоянный
Битрейт : 192 Кбит/сек
Каналы : 2 канала
Channel layout : L R
Частота : 48,0 КГц
Частота кадров : 31,250 кадров/сек (1536 SPF)
Метод сжатия : С потерями
Задержка видео : -40 мс.
Размер потока : 240 Мбайт (4%)
Service kind : Complete Main
Default : Да
Forced : Нет
Текст
Идентификатор : 3
Формат : UTF-8
Идентификатор кодека : S_TEXT/UTF8
Идентификатор кодека/Информация : UTF-8 Plain Text
Продолжительность : 2 ч. 53 м.
Битрейт : 107 бит/сек
Частота кадров : 0,191 кадр/сек
Count of elements : 1988
Размер потока : 137 Кбайт (0%)
Default : Да
Forced : Нет
Релиз от:

Release was prepared by RG Files-x

[Profile] [PM]
Display posts:    
Reply to topic

Current time is: 19-Jul 11:13

All times are UTC + 3



You cannot post new topics in this forum
You cannot reply to topics in this forum
You cannot edit your posts in this forum
You cannot delete your posts in this forum
You cannot vote in polls in this forum
You cannot attach files in this forum
You cannot download files in this forum