Метод [2 сезон: 1-13 серии из 16] (2020) HDTVRip от GeneralFilm

Reply to topic
 
Author Message

olegka7373 ®

Gender: Male

Longevity: 2 years 3 months

Posts: 396

Location: Россия, Новокузнецк

Post 08-Nov-2020 20:39

[Quote]

Метод-2
Год выпуска: 2020
Жанр: Детектив, триллер
Выпущено: Россия, Кинокомпания "Среда"
Режиссер: Александр Войтинский
В ролях: Константин Хабенский, Паулина Андреева, Александр Петров (III), Виталий Кищенко, Евгения Симонова, Никита Тарасов, Сергей Гармаш, Макар Запорожский, Егор Корешков, Сергей Сосновский, Анна Глаубэ, Сергей Ракша, Пётр Нестеров, Наталья Земцова, Руслан Щедрин, Дмитрий Радонов, Анастасия Привалова, Николай Ширяев, Полина Лунегова, Алёна Фалалеева, Владимир Андриянов, Кирилл Полухин, Сергей Гурьев, Елена Николаева (II), Сергей Лобанов, Светлана Устинова, Даниил Воробьёв, Роман Маякин, Юлия Хлынина, Александр Наумов, Артур Сопельник, Павел Чинарёв, Вильма Кутавичюте, Энтони Бэшоу
О фильме: После смерти Меглина прошел год, но Есеня не может забыть о том, что произошло. Не может и не хочет. Призраки прошлого снова и снова возвращают её в тот день, когда она потеряла Меглина. Есеня пытается начать жить заново - рядом с ней муж, подрастает дочь, но всё, о чем она мечтает - это поскорее вернуться к работе. Такой шанс представляется, когда в городе происходит череда таинственных убийств. Есеня возвращается на службу и в первый же день снова теряет близкого человека, своего друга и напарника. Чтобы найти убийцу, ей необходим метод. Чтобы найти метод, ей необходимо воскресить в памяти все то, чему её учил Меглин. Поиски приводят Есеню к разгадке тайн прошлого. Героине, которая еще не успела оправиться от одного кошмара, приходится столкнуться с новым. Но что если это её убьёт?

Качество: HDTVRip
Видео: XviD, ~ 1600 Кбит/с, 720x400, 25 кадр/с
Аудио: Русский (AC3, 2 ch, 192 Кбит/с)
Продолжительность: 13 х ~ 00:46:00
Перевод: Не требуется
Субтитры: нет

Скриншоты


MediaInfo

Общее
Полное имя : D:Metod.S02.HDTVRip.GeneralFilm1.Metod.S02.HDTVRip.GeneralFilm.avi
Формат : AVI
Формат/Информация : Audio Video Interleave
Размер файла : 593 Мбайт
Продолжительность : 45 м.
Общий поток : 1803 Кбит/сек
Видео
Идентификатор : 0
Формат : MPEG-4 Visual
Профиль формата : Advanced Simple@L5
Параметр BVOP формата : 1
Параметр QPel формата : Нет
Параметр GMC формата : Без точки перехода
Параметр матрицы формата : Выборочная
Идентификатор кодека : XVID
Идентификатор кодека/Подсказка : XviD
Продолжительность : 45 м.
Битрейт : 1600 Кбит/сек
Ширина : 720 пикселей
Высота : 400 пикселей
Соотношение сторон : 16:9
Частота кадров : 25,000 кадров/сек
Цветовое пространство : YUV
Субдискретизация насыщенности : 4:2:0
Битовая глубина : 8 бит
Тип развёртки : Прогрессивная
Метод сжатия : С потерями
Бит/(Пиксели*Кадры) : 0.222
Размер потока : 526 Мбайт (89%)
Библиотека кодирования : XviD 73
Аудио
Идентификатор : 1
Формат : AC-3
Формат/Информация : Audio Coding 3
Расширение режима : CM (complete main)
Параметр Endianness формата : Big
Идентификатор кодека : 2000
Продолжительность : 45 м.
Вид битрейта : Постоянный
Битрейт : 192 Кбит/сек
Каналы : 2 канала
Расположение каналов : Front: L R
Частота : 48,0 КГц
Битовая глубина : 16 бит
Метод сжатия : С потерями
Размер потока : 63,2 Мбайт (11%)
Выравнивание : Соединение по промежуткам
Продолжительность промежутка : 32 мс. (0,80 видеокадр)

Внимание! Раздача ведётся путём добавления новых серий

Раздача ведётся путём добавления новых серий, при каждом добавлении создаётся новый торрент. Чтобы начать докачку новой серии, пользователям необходимо сделать следующее:
- Остановить скачивание.
- Удалить старый торрент у себя из клиента (старые серии удалять не надо).
- Скачать новый торрент и запустить его у себя в клиенте вместо старого, при этом указать клиенту путь в старую папку куда и должно происходить скачивание новых серий.
Ваш клиент при этом должен произвести хеширование (проверку) старой папки (если не производит сам - помогите ему сделать это), и будет докачивать только те серии которых у вас ещё нет. Старые серии при этом не удаляются, а продолжают раздаваться!
Если вы уже удалили старые серии, то предотвратить повторную закачку старых серий можно, отжав галочку в соответствующих местах при запуске нового торрента. По возможности, желательно не удалять старые серии как можно дольше, чтобы релизер не столько продолжал раздавать старые серии, а смог сконцентрироваться на новых.
Релиз:
[Profile] [PM]
Display posts:    
Reply to topic

Current time is: 28-Feb 06:41

All times are UTC + 3



You cannot post new topics in this forum
You cannot reply to topics in this forum
You cannot edit your posts in this forum
You cannot delete your posts in this forum
You cannot vote in polls in this forum
You cannot attach files in this forum
You cannot download files in this forum