Метод [2 сезон: 1-13 серии из 16] (2020) WEB-DLRip от GeneralFilm

Reply to topic
 
Author Message

vsobbol ®

Gender: Male

Longevity: 2 years 3 months

Posts: 761

Location: Донецк

Post 09-Nov-2020 20:43

[Quote]

Метод
Год выпуска: 2020
Жанр: Триллер, детектив
Выпущено: Россия, Кинокомпания «Среда»
Режиссер: Александр Войтинский
В ролях: Константин Хабенский, Паулина Андреева, Александр Петров (III), Виталий Кищенко, Евгения Симонова, Никита Тарасов, Сергей Гармаш, Макар Запорожский, Егор Корешков, Сергей Сосновский, Анна Глаубэ, Сергей Ракша, Пётр Нестеров, Наталья Земцова, Руслан Щедрин, Дмитрий Радонов, Анастасия Привалова, Николай Ширяев, Полина Лунегова, Алёна Фалалеева, Владимир Андриянов, Кирилл Полухин, Сергей Гурьев, Елена Николаева (II), Сергей Лобанов, Светлана Устинова, Даниил Воробьёв, Роман Маякин, Юлия Хлынина, Александр Наумов, Артур Сопельник, Павел Чинарёв, Вильма Кутавичюте, Энтони Бэшоу
О фильме: После смерти Меглина прошел год, но Есеня не может забыть о том, что произошло. Не может и не хочет. Призраки прошлого снова и снова возвращают её в тот день, когда она потеряла Меглина. Есеня пытается начать жить заново — рядом с ней муж, подрастает дочь, но всё, о чем она мечтает — это поскорее вернуться к работе. Такой шанс представляется, когда в городе происходит череда таинственных убийств. Есеня возвращается на службу и в первый же день снова теряет близкого человека, своего друга и напарника. Чтобы найти убийцу, ей необходим метод. Чтобы найти метод, ей необходимо воскресить в памяти все то, чему её учил Меглин. Поиски приводят Есеню к разгадке тайн прошлого. Героине, которая еще не успела оправиться от одного кошмара, приходится столкнуться с новым. Но что, если это её убьёт?
Качество: WEB-DLRip
Видео: XviD build 73, 720x400 (16:9), 25.000 fps, ~ 1450 Kbps (~ 0.200 bit/pixel)
Аудио: 48.0 kHz, MP3, 2/0 ch, 192 kbps
Продолжительность: 13 x ~ 00:47:00
Перевод: Не требуется [Русский]
Cубтитры: нет

Скриншоты

MediaInfo

General
Complete name : D:\Razdachi\Metod.s02.2020.WEB-DLRip.GeneralFilm\s02.e01.Metod.avi
Format : AVI
Format/Info : Audio Video Interleave
File size : 538 MiB
Duration : 45 min 14 s
Overall bit rate : 1 663 kb/s
Writing application : VirtualDubMod 1.5.10.3 | www.virtualdub-fr.org || (build 2550/release)
Writing library : VirtualDubMod build 2550/release
Video
ID : 0
Format : MPEG-4 Visual
Format profile : Advanced Simple@L5
Format settings : BVOP1 / Custom Matrix
Format settings, BVOP : 1
Format settings, QPel : No
Format settings, GMC : No warppoints
Format settings, Matrix : Custom
Codec ID : XVID
Codec ID/Hint : XviD
Duration : 45 min 14 s
Bit rate : 1 462 kb/s
Width : 720 pixels
Height : 400 pixels
Display aspect ratio : 16:9
Frame rate : 25.000 FPS
Color space : YUV
Chroma subsampling : 4:2:0
Bit depth : 8 bits
Scan type : Progressive
Compression mode : Lossy
Bits/(Pixel*Frame) : 0.203
Stream size : 473 MiB (88%)
Writing library : XviD 73
Audio
ID : 1
Format : MPEG Audio
Format version : Version 1
Format profile : Layer 3
Codec ID : 55
Codec ID/Hint : MP3
Duration : 45 min 14 s
Bit rate mode : Constant
Bit rate : 192 kb/s
Channel(s) : 2 channels
Sampling rate : 48.0 kHz
Frame rate : 41.667 FPS (1152 SPF)
Compression mode : Lossy
Stream size : 62.1 MiB (12%)
Alignment : Aligned on interleaves
Interleave, duration : 40 ms (1.00 video frame)
Interleave, preload duratio : 504 ms
Writing library : LAME3.99r
Encoding settings : -m s -V 4 -q 2 -lowpass 18.6 -b 192

Внимание! Раздача ведётся путём добавления новых серий

Раздача ведётся путём добавления новых серий, при каждом добавлении создаётся новый торрент. Чтобы начать докачку новой серии, пользователям необходимо сделать следующее:
- Остановить скачивание.
- Удалить старый торрент у себя из клиента (старые серии удалять не надо).
- Скачать новый торрент и запустить его у себя в клиенте вместо старого, при этом указать клиенту путь в старую папку куда и должно происходить скачивание новых серий.
Ваш клиент при этом должен произвести хеширование (проверку) старой папки (если не производит сам - помогите ему сделать это), и будет докачивать только те серии которых у вас ещё нет. Старые серии при этом не удаляются, а продолжают раздаваться!
Если вы уже удалили старые серии, то предотвратить повторную закачку старых серий можно, отжав галочку в соответствующих местах при запуске нового торрента. По возможности, желательно не удалять старые серии как можно дольше, чтобы релизер не столько продолжал раздавать старые серии, а смог сконцентрироваться на новых.
Релиз от:
[Profile] [PM]
Display posts:    
Reply to topic

Current time is: 28-Feb 07:38

All times are UTC + 3



You cannot post new topics in this forum
You cannot reply to topics in this forum
You cannot edit your posts in this forum
You cannot delete your posts in this forum
You cannot vote in polls in this forum
You cannot attach files in this forum
You cannot download files in this forum