Эра медведей [1-8 серии из 8] (2021) WEB-DLRip от Files-х

Reply to topic
 
Author Message

papa1951deda ®

Gender: Male

Longevity: 2 years 3 months

Posts: 873

Location: Казахстан

Post 24-Jan-2021 19:50

[Quote]

Эра медведей Год выпуска: 2021
Жанр: Драма, спортивный
Выпущено: Россия, IKa film, Dobro Agency
Режиссер: Роман Ярославцев
В ролях: Сергей Марин, Александра Дроздова, Тарас Кузьмин, Кирилл Зайцев, Григорий Некрасов, Иван Оранский, Владимир Дмитриев (III), Виктория Корлякова, Анатолий Гущин, Аслан Цаллати, Александр Цой, Ксения Дементьева и др.
О фильме: Еще вчера Илья был легендой киберспорта, а сегодня он никому не нужный 38-летний «старик». Эгоистичный характер оттолкнул от него поклонников, спонсоров, друзей и даже жену с дочкой. Но однажды его обычная жизнь круто меняется: он узнает, что его 18-летняя дочь Варя пошла по стопам некогда популярного и успешного отца и стала лучшей киберспортсменкой своего поколения. Через боль, кровь и слезы она добилась успеха в жестоком мире киберспорта, где нет места девушкам. Однако отцовская гордость длилась недолго: он понимает – Варя не только талантлива, но и крайне цинична, она повторяет ошибки его молодости, а это может привести ее к провалу. Чтобы стать для нее примером, которым он никогда не был, Илья возвращается в киберспорт. Но ни Варя, ни современная киберспортивная индустрия не желают его видеть там, где ему давно нет места. И тогда он решает вновь стать лучшим и сделать невозможное – выиграть чемпионат мира.
Качество: WEB-DLRip
Видео: ~ 1600 Кбит/с, 720x400, 25 кадр/с
Аудио: AC3, 2 ch, 192 Кбит/с
Продолжительность: 8 х ~ 00:25:00
Перевод: Не требуется [Русский]
Cубтитры: нет

Скриншоты

MediaInfo

General
Complete name : H:\fiiles x\Эра медведей..2021.WEB-DLRip.Files-x\01. Эра медведей..2021.WEB-DLRip.Files-x.avi
Format : AVI
Format/Info : Audio Video Interleave
File size : 323 MiB
Duration : 25mn 1s
Overall bit rate : 1 804 Kbps
Writing application : VirtualDubMod 1.5.10.3 | www.virtualdub-fr.org || (build 2550/release)
Writing library : VirtualDubMod build 2550/release
Video
ID : 0
Format : MPEG-4 Visual
Format profile : Advanced Simple@L5
Format settings, BVOP : 1
Format settings, QPel : No
Format settings, GMC : No warppoints
Format settings, Matrix : Custom
Codec ID : XVID
Codec ID/Hint : XviD
Duration : 25mn 1s
Bit rate : 1 602 Kbps
Width : 720 pixels
Height : 400 pixels
Display aspect ratio : 16:9
Frame rate : 25.000 fps
Color space : YUV
Chroma subsampling : 4:2:0
Bit depth : 8 bits
Scan type : Progressive
Compression mode : Lossy
Bits/(Pixel*Frame) : 0.222
Stream size : 287 MiB (89%)
Writing library : XviD 73
Audio
ID : 1
Format : AC-3
Format/Info : Audio Coding 3
Mode extension : CM (complete main)
Codec ID : 2000
Duration : 25mn 1s
Bit rate mode : Constant
Bit rate : 192 Kbps
Channel(s) : 2 channels
Channel positions : Front: L R
Sampling rate : 48.0 KHz
Bit depth : 16 bits
Compression mode : Lossy
Stream size : 34.4 MiB (11%)
Alignment : Split accross interleaves
Interleave, duration : 40 ms (1.00 video frame)
Interleave, preload duration : 500 ms

Внимание! Раздача ведётся путём добавления новых серий

Раздача ведётся путём добавления новых серий, при каждом добавлении создаётся новый торрент. Чтобы начать докачку новой серии, пользователям необходимо сделать следующее:
- Остановить скачивание.
- Удалить старый торрент у себя из клиента (старые серии удалять не надо).
- Скачать новый торрент и запустить его у себя в клиенте вместо старого, при этом указать клиенту путь в старую папку куда и должно происходить скачивание новых серий.
Ваш клиент при этом должен произвести хеширование (проверку) старой папки (если не производит сам - помогите ему сделать это), и будет докачивать только те серии которых у вас ещё нет. Старые серии при этом не удаляются, а продолжают раздаваться!
Релиз от:

Release was prepared by RG Files-x

[Profile] [PM]
Display posts:    
Reply to topic

Current time is: 28-Feb 06:54

All times are UTC + 3



You cannot post new topics in this forum
You cannot reply to topics in this forum
You cannot edit your posts in this forum
You cannot delete your posts in this forum
You cannot vote in polls in this forum
You cannot attach files in this forum
You cannot download files in this forum