Эра медведей [1-8 серии из 8] (2020) WEB-DLRip-AVC от Files-х

Reply to topic
 
Author Message

Серый1779 ®

Gender: Male

Longevity: 2 years 3 months

Posts: 1546

Location: Украина

Post 24-Jan-2021 20:21

[Quote]

Эра медведей Год выпуска: 2020
Жанр: Драма, спорт
Выпущено: Россия, IKa film, Dobro Agency
Режиссер: Роман Ярославцев
В ролях: Сергей Марин, Александра Дроздова, Тарас Кузьмин, Кирилл Зайцев, Григорий Некрасов, Иван Оранский, Владимир Дмитриев (III), Виктория Корлякова, Анатолий Гущин, Аслан Цаллати, Александр Цой, Ксения Дементьева
О фильме: Еще вчера Илья был легендой киберспорта, а сегодня он никому не нужный 38-летний «старик». Эгоистичный характер оттолкнул от него поклонников, спонсоров, друзей и даже жену с дочкой. Но однажды его обычная жизнь круто меняется: он узнает, что его 18-летняя дочь Варя пошла по стопам некогда популярного и успешного отца и стала лучшей киберспортсменкой своего поколения. Через боль, кровь и слезы она добилась успеха в жестоком мире киберспорта, где нет места девушкам. Однако отцовская гордость длилась недолго: он понимает – Варя не только талантлива, но и крайне цинична, она повторяет ошибки его молодости, а это может привести ее к провалу. Чтобы стать для нее примером, которым он никогда не был, Илья возвращается в киберспорт. Но ни Варя, ни современная киберспортивная индустрия не желают его видеть там, где ему давно нет места. И тогда он решает вновь стать лучшим и сделать невозможное – выиграть чемпионат мира.
Качество: WEB-DLRip-AVC
Видео: MPEG-4 AVC, ~ 1600 Кбит/с, 1024x576, 25 кадр/с
Аудио: AC3, 2 ch, 192 Кбит/с
Продолжительность: 8 х ~ 00:25:00
Перевод: Не требуется
Субтитры: нет

Скриншоты


MediaInfo

General
Unique ID : 205074831874717711958701024681295465689 (0x9A47F9D82BFA29688CD4A0AB36FDCCD9)
Complete name : F:\Эра медведей.(2020).WEB-DLRip.(AVC).Files-x\01.Эра медведей.(2020).WEB-DLRip.(AVC).by.Серый1779.Files-x.mkv
Format : Matroska
Format version : Version 2
File size : 320 MiB
Duration : 25 min 1 s
Overall bit rate : 1 790 kb/s
Encoded date : UTC 2021-01-24 15:51:03
Writing application : mkvmerge v7.8.0 ('River Man') 32bit built on Apr 3 2015 12:11:22
Writing library : libebml v1.3.1 + libmatroska v1.4.2
Video
ID : 1
Format : AVC
Format/Info : Advanced Video Codec
Format profile : High@L4.1
Format settings : CABAC / 9 Ref Frames
Format settings, CABAC : Yes
Format settings, RefFrames : 9 frames
Codec ID : V_MPEG4/ISO/AVC
Duration : 25 min 1 s
Bit rate : 1 600 kb/s
Width : 1 024 pixels
Height : 576 pixels
Display aspect ratio : 16:9
Frame rate mode : Constant
Frame rate : 25.000 FPS
Color space : YUV
Chroma subsampling : 4:2:0
Bit depth : 8 bits
Scan type : Progressive
Bits/(Pixel*Frame) : 0.109
Stream size : 280 MiB (87%)
Writing library : x264 core 146 r2538 121396c
Encoding settings : cabac=1 / ref=9 / deblock=1:-2:-1 / analyse=0x3:0x133 / me=umh / subme=9 / psy=1 / psy_rd=1.00:0.15 / mixed_ref=1 / me_range=32 / chroma_me=1 / trellis=2 / 8x8dct=1 / cqm=0 / deadzone=21,11 / fast_pskip=0 / chroma_qp_offset=-3 / threads=18 / lookahead_threads=3 / sliced_threads=0 / nr=0 / decimate=1 / interlaced=0 / bluray_compat=0 / constrained_intra=0 / bframes=9 / b_pyramid=2 / b_adapt=2 / b_bias=0 / direct=1 / weightb=1 / open_gop=0 / weightp=2 / keyint=250 / keyint_min=25 / scenecut=40 / intra_refresh=0 / rc=2pass / mbtree=0 / bitrate=1600 / ratetol=1.0 / qcomp=0.60 / qpmin=0 / qpmax=69 / qpstep=4 / cplxblur=20.0 / qblur=0.5 / ip_ratio=1.40 / pb_ratio=1.30 / aq=2:1.00
Default : Yes
Forced : No
Color range : Limited
Color primaries : BT.709
Transfer characteristics : BT.709
Matrix coefficients : BT.709
Audio
ID : 2
Format : AC-3
Format/Info : Audio Coding 3
Format settings, Endianness : Big
Codec ID : A_AC3
Duration : 25 min 1 s
Bit rate mode : Constant
Bit rate : 192 kb/s
Channel(s) : 2 channels
Channel positions : Front: L R
Sampling rate : 48.0 kHz
Frame rate : 31.250 FPS (1536 SPF)
Bit depth : 16 bits
Compression mode : Lossy
Stream size : 34.4 MiB (11%)
Service kind : Complete Main
Default : Yes
Forced : No

Раздача ведётся путём добавления новых серий

Внимание! Раздача ведётся путём добавления новых серий; при каждом добавлении создаётся новый торрент.
Чтобы начать докачку новой серии, пользователям необходимо сделать следующее:
1. Остановить скачивание;
2. Удалить старый торрент у себя из клиента (старые серии удалять не надо);
3. Скачать новый торрент и запустить его у себя в клиенте вместо старого, при этом указать клиенту путь в старую папку куда и должно происходить скачивание новых серий. Ваш клиент при этом должен произвести хеширование (проверку) старой папки и будет докачивать только те серии, которых у вас ещё нет. Старые серии при этом не удаляются, а продолжают раздаваться! Eсли вы уже удалили старые серии, то предотвратить повторную закачку старых серий можно, отжав галочку в соответствующих местах при запуске нового торрента.
Релиз от:

Release was prepared by RG Files-x

[Profile] [PM]
Display posts:    
Reply to topic

Current time is: 28-Feb 06:24

All times are UTC + 3



You cannot post new topics in this forum
You cannot reply to topics in this forum
You cannot edit your posts in this forum
You cannot delete your posts in this forum
You cannot vote in polls in this forum
You cannot attach files in this forum
You cannot download files in this forum