Пассажиры [2 сезон: 1-6 серия из 8] (2022) WEB-DLRip-AVC от Files-х

Reply to topic
 
Author Message

Серый1779 ®

Gender: Male

Longevity: 3 years 6 months

Posts: 2399

Location: Украина

Post 08-Apr-2022 14:10

[Quote]

Пассажиры
Год выпуска: 2022
Жанр: Драма, мистика
Выпущено: Россия, Кинокомпания "START"
Режиссер: Артём Литвиненко
В ролях: Сергей Гилёв, Анна Чиповская, Кирилл Кяро, Надежда Маркина, Ирина Рахманова, Сергей Шакуров, Наталия Вдовина, Никита Кологривый, Евгений Сидихин, Вероника Мохирева, Юрий Чурсин, Ольга Науменко, Лев Малишава, Евгения Громова, Александра Булычёва, Данил Иванов, Полина Долиндо, Иван Верховых, Инга Фишлер, Руслан Джайбеков, Никита Дювбанов
О фильме: В конце первого сезона водитель необычного такси Андрей завершил свою миссию: помог почти трем сотням душ, застрявшим между миром живых и тем светом, добраться до «точки перехода». Его дело должен продолжить Кирилл, один из «неудачных» пассажиров Андрея. Кирилла поставили на место водителя из-за того, что он погубил жизни людей, пристрастив их к запрещенным веществам. Теперь герой должен перевезти столько же пассажиров, сколько человек пострадали по его вине. Перед новым водителем желтого мерседеса Кириллом стоит непростая задача — научиться чуткости и эмпатии, которые необходимы для общения с клиентами такси. Ведь ему нужно помочь застрявшим на этом свете душам добраться до «точки перехода», узнав, что держит их на Земле и не дает уйти из мира живых. Помогать Кириллу в «перевозке душ» будет пассажирка Мэри, которая тоже застряла между двумя мирами. Теперь Кириллу предстоит пройти испытание не только чужими проблемами, но и собственными чувствами. Есть ли у Кирилла и Мэри возможность исправить ошибки прошлого и куда приведут их отношения?

Качество: WEB-DLRip-AVC
Видео: MPEG-4 AVC, ~ 1600 Кбит/с, 1024x432, 25 кадр/с
Аудио: AC3, 2 ch, 192 Кбит/с
Продолжительность: 6 х ~ 00:25:00
Перевод: Не требуется
Субтитры: нет

Скриншоты



MediaInfo

General
Unique ID : 192108481013845782879365098565948944453 (0x9086BF63BB40A448ACE2E54E5D803045)
Complete name : F:\Пассажиры.S02.(2022).WEBRip.(AVC).Files-x\01.Пассажиры.S02.(2022).WEB-DLRip.(AVC).by.Серый1779.Files-x.mkv
Format : Matroska
Format version : Version 2
File size : 325 MiB
Duration : 25 min 19 s
Overall bit rate : 1 793 kb/s
Encoded date : UTC 2022-05-06 13:17:27
Writing application : mkvmerge v7.8.0 ('River Man') 32bit built on Apr 3 2015 12:11:22
Writing library : libebml v1.3.1 + libmatroska v1.4.2
Video
ID : 1
Format : AVC
Format/Info : Advanced Video Codec
Format profile : High@L4.1
Format settings : CABAC / 9 Ref Frames
Format settings, CABAC : Yes
Format settings, RefFrames : 9 frames
Codec ID : V_MPEG4/ISO/AVC
Duration : 25 min 19 s
Bit rate : 1 600 kb/s
Width : 1 024 pixels
Height : 432 pixels
Display aspect ratio : 2.40:1
Frame rate mode : Constant
Frame rate : 25.000 FPS
Color space : YUV
Chroma subsampling : 4:2:0
Bit depth : 8 bits
Scan type : Progressive
Bits/(Pixel*Frame) : 0.145
Stream size : 284 MiB (87%)
Writing library : x264 core 146 r2538 121396c
Encoding settings : cabac=1 / ref=9 / deblock=1:-2:-1 / analyse=0x3:0x133 / me=umh / subme=9 / psy=1 / psy_rd=1.00:0.15 / mixed_ref=1 / me_range=32 / chroma_me=1 / trellis=2 / 8x8dct=1 / cqm=0 / deadzone=21,11 / fast_pskip=0 / chroma_qp_offset=-3 / threads=18 / lookahead_threads=3 / sliced_threads=0 / nr=0 / decimate=1 / interlaced=0 / bluray_compat=0 / constrained_intra=0 / bframes=9 / b_pyramid=2 / b_adapt=2 / b_bias=0 / direct=1 / weightb=1 / open_gop=0 / weightp=2 / keyint=250 / keyint_min=25 / scenecut=40 / intra_refresh=0 / rc=2pass / mbtree=0 / bitrate=1600 / ratetol=1.0 / qcomp=0.60 / qpmin=0 / qpmax=69 / qpstep=4 / cplxblur=20.0 / qblur=0.5 / ip_ratio=1.40 / pb_ratio=1.30 / aq=2:1.00
Default : Yes
Forced : No
Color range : Limited
Color primaries : BT.709
Transfer characteristics : BT.709
Matrix coefficients : BT.709
Audio
ID : 2
Format : AC-3
Format/Info : Audio Coding 3
Format settings, Endianness : Big
Codec ID : A_AC3
Duration : 25 min 19 s
Bit rate mode : Constant
Bit rate : 192 kb/s
Channel(s) : 2 channels
Channel positions : Front: L R
Sampling rate : 48.0 kHz
Frame rate : 31.250 FPS (1536 SPF)
Bit depth : 16 bits
Compression mode : Lossy
Stream size : 34.8 MiB (11%)
Service kind : Complete Main
Default : Yes
Forced : No

Внимание! Раздача ведётся путём добавления новых серий

Раздача ведётся путём добавления новых серий, при каждом добавлении создаётся новый торрент. Чтобы начать докачку новой серии, пользователям необходимо сделать следующее:
- Остановить скачивание.
- Удалить старый торрент у себя из клиента (старые серии удалять не надо).
- Скачать новый торрент и запустить его у себя в клиенте вместо старого, при этом указать клиенту путь в старую папку куда и должно происходить скачивание новых серий.
Ваш клиент при этом должен произвести хеширование (проверку) старой папки (если не производит сам - помогите ему сделать это), и будет докачивать только те серии которых у вас ещё нет. Старые серии при этом не удаляются, а продолжают раздаваться!
Если вы уже удалили старые серии, то предотвратить повторную закачку старых серий можно, отжав галочку в соответствующих местах при запуске нового торрента. По возможности, желательно не удалять старые серии как можно дольше, чтобы релизер не столько продолжал раздавать старые серии, а смог сконцентрироваться на новых.
Релиз от:

Release was prepared by RG Files-x

[Profile] [PM]
Display posts:    
Reply to topic

Current time is: 17-May 15:12

All times are UTC + 3



You cannot post new topics in this forum
You cannot reply to topics in this forum
You cannot edit your posts in this forum
You cannot delete your posts in this forum
You cannot vote in polls in this forum
You cannot attach files in this forum
You cannot download files in this forum