Пассажиры [2 сезон: 1-6 серии из 8] (2022) WEB-DLRip от Files-x

Reply to topic
 
Author Message

papa1951deda ®

Gender: Male

Longevity: 3 years 5 months

Posts: 1344

Location: Казахстан

Post 08-May-2022 17:37

[Quote]

Пассажиры Год выпуска: 2022
Жанр:Драма, мистика
Выпущено: Россия, Кинокомпания "START"
Режиссёр: Артём Литвиненко
В ролях: Сергей Гилёв, Анна Чиповская, Кирилл Кяро, Надежда Маркина, Ирина Рахманова, Сергей Шакуров, Наталия Вдовина, Никита Кологривый, Евгений Сидихин, Вероника Мохирева, Юрий Чурсин, Ольга Науменко, Лев Малишава, Евгения Громова, Александра Булычёва, Данил Иванов, Полина Долиндо, Иван Верховых, Инга Фишлер, Руслан Джайбеков, Никита Дювбанов
О фильме: В конце первого сезона водитель необычного такси Андрей завершил свою миссию: помог почти трем сотням душ, застрявшим между миром живых и тем светом, добраться до «точки перехода». Его дело должен продолжить Кирилл, один из «неудачных» пассажиров Андрея. Кирилла поставили на место водителя из-за того, что он погубил жизни людей, пристрастив их к запрещенным веществам. Теперь герой должен перевезти столько же пассажиров, сколько человек пострадали по его вине. Перед новым водителем желтого мерседеса Кириллом стоит непростая задача — научиться чуткости и эмпатии, которые необходимы для общения с клиентами такси. Ведь ему нужно помочь застрявшим на этом свете душам добраться до «точки перехода», узнав, что держит их на Земле и не дает уйти из мира живых. Помогать Кириллу в «перевозке душ» будет пассажирка Мэри, которая тоже застряла между двумя мирами. Теперь Кириллу предстоит пройти испытание не только чужими проблемами, но и собственными чувствами. Есть ли у Кирилла и Мэри возможность исправить ошибки прошлого и куда приведут их отношения?

Качество: WEB-DLRip
Видео: XviD, ~ 1600 Кбит/с, 720x304, 25 кадр/с
Аудио: AC3, 2 ch, 192 Кбит/с
Продолжительность: 6 х ~ 00:26:00
Перевод: Не требуется
Субтитры: Нет

Скриншоты




MediaInfo

General
Complete name : G:\Пассажиры.S02.(2022).WEB-DLRip.Files-x\01.Пассажиры.S02.(2022).WEB-DLRip.Files-x.avi
Format : AVI
Format/Info : Audio Video Interleave
File size : 310 MiB
Duration : 25 min 18 s
Overall bit rate : 1 711 kb/s
Writing application : VirtualDubMod 1.5.10.3 | https://www.virtualdub-fr.org || (build 2550/release)
Writing library : VirtualDubMod build 2550/release
Video
ID : 0
Format : MPEG-4 Visual
Format profile : Advanced Simple@L5
Format settings : BVOP1 / Custom Matrix
Format settings, BVOP : 1
Format settings, QPel : No
Format settings, GMC : No warppoints
Format settings, Matrix : Custom
Codec ID : XVID
Codec ID/Hint : XviD
Duration : 25 min 18 s
Bit rate : 1 509 kb/s
Width : 720 pixels
Height : 304 pixels
Display aspect ratio : 2.35:1
Frame rate : 25.000 FPS
Color space : YUV
Chroma subsampling : 4:2:0
Bit depth : 8 bits
Scan type : Progressive
Compression mode : Lossy
Bits/(Pixel*Frame) : 0.276
Stream size : 273 MiB (88%)
Writing library : XviD 73
Audio
ID : 1
Format : AC-3
Format/Info : Audio Coding 3
Format settings, Endianness : Big
Codec ID : 2000
Duration : 25 min 18 s
Bit rate mode : Constant
Bit rate : 192 kb/s
Channel(s) : 2 channels
Channel positions : Front: L R
Sampling rate : 48.0 kHz
Frame rate : 31.250 FPS (1536 SPF)
Bit depth : 16 bits
Compression mode : Lossy
Stream size : 34.8 MiB (11%)
Alignment : Split accross interleaves
Interleave, duration : 40 ms (1.00 video frame)
Interleave, preload duration : 500 ms
Service kind : Complete Main

Внимание! Раздача ведётся путём добавления новых серий

Раздача ведётся путём добавления новых серий, при каждом добавлении создаётся новый торрент. Чтобы начать докачку новой серии, пользователям необходимо сделать следующее:
- Остановить скачивание.
- Удалить старый торрент у себя из клиента (старые серии удалять не надо).
- Скачать новый торрент и запустить его у себя в клиенте вместо старого, при этом указать клиенту путь в старую папку куда и должно происходить скачивание новых серий.
Ваш клиент при этом должен произвести хеширование (проверку) старой папки (если не производит сам - помогите ему сделать это), и будет докачивать только те серии которых у вас ещё нет. Старые серии при этом не удаляются, а продолжают раздаваться!
Релиз от:

Release was prepared by RG Files-x

[Profile] [PM]
Display posts:    
Reply to topic

Current time is: 17-May 14:45

All times are UTC + 3



You cannot post new topics in this forum
You cannot reply to topics in this forum
You cannot edit your posts in this forum
You cannot delete your posts in this forum
You cannot vote in polls in this forum
You cannot attach files in this forum
You cannot download files in this forum