Мальчик-дельфин (2021) WEB-DLRip от Files-x | Кинопоиск HD

Reply to topic
 
Author Message

papa1951deda ®

Gender: Male

Longevity: 3 years 5 months

Posts: 1342

Location: Казахстан

Post 13-May-2022 21:35

[Quote]

Мальчик-дельфин Год выпуска: 2021
Жанр: Мультфильм, приключения, фэнтези, комедия
Выпущено: Россия, Кинокомпания «SkyFrame»
Режиссер: Андрей Гоглев, Мохаммад Хейрандиш
В ролях: Полина Авдеенко, Юлия Рудина, Александр Фенин, Борис Хасанов, Александр Васильев, Юлия Зоркина, Василиса Ручимская, Клава Кока
Описание: Дельфиненок Снежок спасает в волнах маленького мальчика, выжившего в авиакатастрофе. С тех пор друзья, почти братья, беззаботно растут вместе, будоража морских обитателей своими веселыми проделками. Пока однажды покой их радостного мирка не разрушает злобный Осьминог. Он изгоняет мальчика на сушу, где тому предстоит научиться жить среди людей и разобраться в тайне своего происхождения. Новый друг, добрый капитан Мурварид, и верный Снежок помогут мальчику справиться со всеми невзгодами — будь то на дне морском или на загадочных далеких островах. Сказочные приключения ждут!

Качество: WEB-DLRip
Видео: XviD, ~ 1 851 Кбит/с, 720x384, 24 кадр/с
Аудио: АС3, 6 ch, 448 Кбит/с)
Продолжительность: 01:25:00
Перевод: Не требуется | КиноПоиск HD
Субтитры: Русские

Скриншоты

MediaInfo

General
Complete name: E:\Malchik.delfin.2021.WEB-DLRip.Files-x.avi
Format: AVI
Format/Info: Audio Video Interleave
File size: 1.37 GiB
Duration: 1 h 25 min
Overall bit rate: 2 309 kb/s
Writing application: VirtualDubMod 1.5.10.3 | https://www.virtualdub-fr.org || (build 2550/release)
Writing library: VirtualDubMod build 2550/release
Video
ID: 0
Format: MPEG-4 Visual
Format profile: Advanced Simple@L5
Format settings: BVOP1 / Custom Matrix
Format settings, BVOP: 1
Format settings, QPel: No
Format settings, GMC: No warppoints
Format settings, Matrix: Custom
Codec ID: XVID
Codec ID/Hint: XviD
Duration: 1 h 25 min
Bit rate: 1 851 kb/s
Width: 720 pixels
Height: 384 pixels
Display aspect ratio: 1.85:1
Frame rate: 24.000 FPS
Color space: YUV
Chroma subsampling: 4:2:0
Bit depth: 8 bits
Scan type: Progressive
Compression mode: Lossy
Bits/(Pixel*Frame): 0.279
Stream size: 1.10 GiB (80%)
Writing library: XviD 73
Audio
ID: 1
Format: AC-3
Format/Info: Audio Coding 3
Commercial name: Dolby Digital
Codec ID: 2000
Duration: 1 h 25 min
Bit rate mode: Constant
Bit rate: 448 kb/s
Channel(s): 6 channels
Channel layout: L R C LFE Ls Rs
Sampling rate: 48.0 kHz
Frame rate: 31.250 FPS (1536 SPF)
Compression mode: Lossy
Stream size: 273 MiB (19%)
Alignment: Split across interleaves
Interleave, duration: 42 ms (1.00 video frame)
Interleave, preload duratio: 500 ms
Service kind: Complete Main
Релиз от:

Release was prepared by RG Files-x

[Profile] [PM]
Display posts:    
Reply to topic

Current time is: 17-May 13:47

All times are UTC + 3



You cannot post new topics in this forum
You cannot reply to topics in this forum
You cannot edit your posts in this forum
You cannot delete your posts in this forum
You cannot vote in polls in this forum
You cannot attach files in this forum
You cannot download files in this forum