Мальчик-дельфин (2021) WEB-DLRip-AVC от Files-x | Кинопоиск HD

Reply to topic
 
Author Message

papa1951deda ®

Gender: Male

Longevity: 3 years 5 months

Posts: 1342

Location: Казахстан

Post 13-May-2022 21:39

[Quote]

Мальчик-дельфин Год выпуска: 2021
Жанр: Мультфильм, приключения, фэнтези, комедия
Выпущено: Россия, Кинокомпания «SkyFrame»
Режиссер: Андрей Гоглев, Мохаммад Хейрандиш
В ролях: Полина Авдеенко, Юлия Рудина, Александр Фенин, Борис Хасанов, Александр Васильев, Юлия Зоркина, Василиса Ручимская, Клава Кока
Описание: Дельфиненок Снежок спасает в волнах маленького мальчика, выжившего в авиакатастрофе. С тех пор друзья, почти братья, беззаботно растут вместе, будоража морских обитателей своими веселыми проделками. Пока однажды покой их радостного мирка не разрушает злобный Осьминог. Он изгоняет мальчика на сушу, где тому предстоит научиться жить среди людей и разобраться в тайне своего происхождения. Новый друг, добрый капитан Мурварид, и верный Снежок помогут мальчику справиться со всеми невзгодами — будь то на дне морском или на загадочных далеких островах. Сказочные приключения ждут!

Качество: WEB-DLRip-AVC
Видео:MPEG-4 AVC, ~ 1 851 Кбит/с, 720x384, 24 кадр/с
Аудио №1: AC3, 6 ch, 448 Кбит/с
Аудио №2: E-AC3, 6 ch, 448 Кбит/с
Продолжительность: 01:25:00
Перевод: Не требуется | КиноПоиск HD
Субтитры: Русские

Скриншоты

MediaInfo

General
Unique ID : 329604424759071081778257289503908578802 (0xF7F780CE15ACBD16C4E09AA4727045F2)
Complete name : E:\Malchik.delfin.2021.WEB-DLRip.Files-x..mkv
Format : Matroska
Format version : Version 4
File size : 1.72 GiB
Duration : 1 h 25 min
Overall bit rate : 2 897 kb/s
Movie name : Malchik.delfin.2021.WEB-DL.1080p.ELEKTRI4KA.UNIONGANG.
Encoded date : UTC 2022-05-10 12:54:27
Writing application : mkvmerge v32.0.0 ('Astral Progressions') 64-bit
Writing library : libebml v1.3.7 + libmatroska v1.5.0
Video
ID : 1
Format : AVC
Format/Info : Advanced Video Codec
Format profile : High@L4.1
Format settings : CABAC / 9 Ref Frames
Format settings, CABAC : Yes
Format settings, Reference : 9 frames
Codec ID : V_MPEG4/ISO/AVC
Duration : 1 h 25 min
Bit rate : 1 999 kb/s
Width : 720 pixels
Height : 384 pixels
Display aspect ratio : 1.85:1
Frame rate mode : Constant
Frame rate : 24.000 FPS
Color space : YUV
Chroma subsampling : 4:2:0
Bit depth : 8 bits
Scan type : Progressive
Bits/(Pixel*Frame) : 0.301
Stream size : 1.19 GiB (69%)
Writing library : x264 core 146 r2538 121396c
Encoding settings : cabac=1 / ref=9 / deblock=1:-2:-1 / analyse=0x3:0x133 / me=umh / subme=9 / psy=1 / psy_rd=1.00:0.15 / mixed_ref=1 / me_range=32 / chroma_me=1 / trellis=2 / 8x8dct=1 / cqm=0 / deadzone=21,11 / fast_pskip=0 / chroma_qp_offset=-3 / threads=18 / lookahead_threads=3 / sliced_threads=0 / nr=0 / decimate=1 / interlaced=0 / bluray_compat=0 / constrained_intra=0 / bframes=9 / b_pyramid=2 / b_adapt=2 / b_bias=0 / direct=3 / weightb=1 / open_gop=0 / weightp=2 / keyint=250 / keyint_min=23 / scenecut=40 / intra_refresh=0 / rc=2pass / mbtree=0 / bitrate=1999 / ratetol=1.0 / qcomp=0.60 / qpmin=0 / qpmax=69 / qpstep=4 / cplxblur=20.0 / qblur=0.5 / ip_ratio=1.40 / pb_ratio=1.30 / aq=2:1.00
Default : Yes
Forced : No
Color range : Limited
Color primaries : BT.709
Transfer characteristics : BT.709
Matrix coefficients : BT.709
Audio #1
ID : 2
Format : AC-3
Format/Info : Audio Coding 3
Commercial name : Dolby Digital
Codec ID : A_AC3
Duration : 1 h 25 min
Bit rate mode : Constant
Bit rate : 448 kb/s
Channel(s) : 6 channels
Channel layout : L R C LFE Ls Rs
Sampling rate : 48.0 kHz
Frame rate : 31.250 FPS (1536 SPF)
Compression mode : Lossy
Stream size : 273 MiB (15%)
Title : Original AC3 (KP HD)
Language : Russian
Service kind : Complete Main
Default : Yes
Forced : Yes
Audio #2
ID : 3
Format : E-AC-3
Format/Info : Enhanced AC-3
Commercial name : Dolby Digital Plus
Codec ID : A_EAC3
Duration : 1 h 25 min
Bit rate mode : Constant
Bit rate : 448 kb/s
Channel(s) : 6 channels
Channel layout : L R C LFE Ls Rs
Sampling rate : 48.0 kHz
Frame rate : 31.250 FPS (1536 SPF)
Compression mode : Lossy
Stream size : 273 MiB (15%)
Title : Original E-AC3 (KP HD)
Language : Russian
Service kind : Complete Main
Default : No
Forced : No
Text
ID : 4
Format : UTF-8
Codec ID : S_TEXT/UTF8
Codec ID/Info : UTF-8 Plain Text
Duration : 1 h 24 min
Bit rate : 83 b/s
Count of elements : 916
Stream size : 51.4 KiB (0%)
Title : Full (KP HD)
Language : Russian
Default : No
Forced : No
Релиз от:

Release was prepared by RG Files-x

[Profile] [PM]
Display posts:    
Reply to topic

Current time is: 17-May 13:17

All times are UTC + 3



You cannot post new topics in this forum
You cannot reply to topics in this forum
You cannot edit your posts in this forum
You cannot delete your posts in this forum
You cannot vote in polls in this forum
You cannot attach files in this forum
You cannot download files in this forum