Грымза [1-4 серии из 4] (2022) WEB-DLRip от Files-х

Reply to topic
 
Author Message

bond74 ®

Gender: Male

Longevity: 4 years 2 months

Posts: 1845

Post 27-Nov-2022 00:51

[Quote]

Грымза
Год выпуска: 2022
Жанр: Мелодрама
Выпущено: Россия, Кинокомпания «Амедиа Продакшн»
Режиссер: Юрий Харнас
В ролях: Оксана Скакун, Олег Каменщиков, Иван Клещевников, Вероника Мохирева, Анастасия Чепелюк, Сергей Ершов, Константин Тополага, Наталья Тищенко
О фильме: Татьяна – преподаватель в техническом ВУЗе. Личная жизнь ее давно положена на алтарь науки: она сделала успешную научную карьеру, коллеги на кафедре ее уважают. А вот студенты ненавидят Татьяну всей душой. Все потому, что «Грымза» (так зовут ее студенты) никому никогда не делает поблажек. Поэтому Роман, один из студентов с «неудом», просит Алексея, своего дядю, любителя жизни и женщин, приударить за Грымзой, чтобы та «подобрела» к следующей сессии. Студент надеется лишь сдать экзамен, но эта затея коренным образом меняет жизнь Татьяны, Алексея, да и самого Романа.
Качество: WEB-DLRip
Видео: XviD, ~ 1600 Кбит/с, 720x400, 25 кадр/с
Аудио: AC3, 2 ch, 192 Кбит/с
Продолжительность: 4 x ~ 00:48:39
Перевод: Не требуется [Русский]
Cубтитры: нет

Скриншоты




MediaInfo

Общее
Полное имя : C:\films\Грымза.2022. WEB-DLRip. Files-x\03. Грымза.2022. WEB-DLRip. Files-x.avi
Формат : AVI
Формат/Информация : Audio Video Interleave
Размер файла : 645 Мбайт
Продолжительность : 50 м. 11 с.
Общий поток : 1 796 Кбит/сек
Программа кодирования : VirtualDubMod 1.5.10.3 | www.virtualdub-fr.org || (build 2550/release)
Библиотека кодирования : VirtualDubMod build 2550/release
Видео
Идентификатор : 0
Формат : MPEG-4 Visual
Профиль формата : Advanced Simple@L5
Настройки формата : BVOP1 / Custom Matrix
Параметр BVOP формата : 1
Параметр QPel формата : Нет
Параметр GMC формата : Без точки перехода
Параметр матрицы формата : Выборочная
Идентификатор кодека : XVID
Идентификатор кодека/Подсказка : XviD
Продолжительность : 50 м. 11 с.
Битрейт : 1 594 Кбит/сек
Ширина : 720 пикселей
Высота : 400 пикселей
Соотношение сторон : 16:9
Частота кадров : 25,000 кадров/сек
Цветовое пространство : YUV
Субдискретизация насыщенности : 4:2:0
Битовая глубина : 8 бит
Тип развёртки : Прогрессивная
Метод сжатия : С потерями
Бит/(Пиксели*Кадры) : 0.221
Размер потока : 572 Мбайт (89%)
Библиотека кодирования : XviD 1.2.1 (UTC 2008-12-04)
Аудио
Идентификатор : 1
Формат : AC-3
Формат/Информация : Audio Coding 3
Коммерческое название : Dolby Digital
Идентификатор кодека : 2000
Продолжительность : 50 м. 11 с.
Вид битрейта : Постоянный
Битрейт : 192 Кбит/сек
Каналы : 2 канала
Channel layout : L R
Частота : 48,0 КГц
Частота кадров : 31,250 кадров/сек (1536 SPF)
Метод сжатия : С потерями
Размер потока : 68,9 Мбайт (11%)
Выравнивание : Разделение по промежуткам
Продолжительность промежутка : 40 мс. (1,00 видеокадр)
Время предзагрузки промежутка : 500 мс.
Service kind : Complete Main

Внимание! Раздача ведётся путём добавления новых серий

Раздача ведётся путём добавления новых серий, при каждом добавлении создаётся новый торрент. Чтобы начать докачку новой серии, пользователям необходимо сделать следующее:
- Остановить скачивание.
- Удалить старый торрент у себя из клиента (старые серии удалять не надо).
- Скачать новый торрент и запустить его у себя в клиенте вместо старого, при этом указать клиенту путь в старую папку куда и должно происходить скачивание новых серий.
Ваш клиент при этом должен произвести хеширование (проверку) старой папки (если не производит сам - помогите ему сделать это), и будет докачивать только те серии которых у вас ещё нет. Старые серии при этом не удаляются, а продолжают раздаваться!
Если вы уже удалили старые серии, то предотвратить повторную закачку старых серий можно, отжав галочку в соответствующих местах при запуске нового торрента. По возможности, желательно не удалять старые серии как можно дольше, чтобы релизер не столько продолжал раздавать старые серии, а смог сконцентрироваться на новых.
Релиз от:

Release was prepared by RG Files-x

[Profile] [PM]
Display posts:    
Reply to topic

Current time is: 03-Feb 02:53

All times are UTC + 3



You cannot post new topics in this forum
You cannot reply to topics in this forum
You cannot edit your posts in this forum
You cannot delete your posts in this forum
You cannot vote in polls in this forum
You cannot attach files in this forum
You cannot download files in this forum