Грымза [1-4 серии из 4] (2022) WEB-DL 1080p от Files-х

Reply to topic
 
Author Message

bond74 ®

Gender: Male

Longevity: 4 years 2 months

Posts: 1845

Post 27-Nov-2022 00:53

[Quote]

Грымза
Год выпуска: 2022
Жанр: Мелодрама
Выпущено: Россия, Кинокомпания «Амедиа Продакшн»
Режиссер: Юрий Харнас
В ролях: Оксана Скакун, Олег Каменщиков, Иван Клещевников, Вероника Мохирева, Анастасия Чепелюк, Сергей Ершов, Константин Тополага, Наталья Тищенко
О фильме: Татьяна – преподаватель в техническом ВУЗе. Личная жизнь ее давно положена на алтарь науки: она сделала успешную научную карьеру, коллеги на кафедре ее уважают. А вот студенты ненавидят Татьяну всей душой. Все потому, что «Грымза» (так зовут ее студенты) никому никогда не делает поблажек. Поэтому Роман, один из студентов с «неудом», просит Алексея, своего дядю, любителя жизни и женщин, приударить за Грымзой, чтобы та «подобрела» к следующей сессии. Студент надеется лишь сдать экзамен, но эта затея коренным образом меняет жизнь Татьяны, Алексея, да и самого Романа.
Качество: WEB-DL 1080p
Видео: MPEG-4 AVC, ~ 3746 Кбит/с, 1920x1080
Аудио: AC3, 2 ch, 192 Кбит/с
Продолжительность: 4 х ~ 00:49:00
Язык: Русский

Скриншоты




MediaInfo

Общее
Уникальный идентификатор : 213369484764622868729890134328303020883 (0xA08577CE5E0CA68AA579DCAFA925EB53)
Полное имя : C:\films\Грымза.2022. WEB-DL 1080p. Files-x\04. Грымза.2022. WEB-DL 1080p. Files-x.mkv
Формат : Matroska
Версия формата : Version 4
Размер файла : 1,35 Гбайт
Продолжительность : 49 м. 10 с.
Общий поток : 3 917 Кбит/сек
Дата кодирования : UTC 2022-11-25 21:59:26
Программа кодирования : mkvmerge v7.8.0 ('River Man') 32bit built on Apr 3 2015 12:11:22
Библиотека кодирования : libebml v1.3.1 + libmatroska v1.4.2
Видео
Идентификатор : 1
Формат : AVC
Формат/Информация : Advanced Video Codec
Профиль формата : High@L4.1
Настройки формата : CABAC / 4 Ref Frames
Параметр CABAC формата : Да
Параметр RefFrames формата : 4 кадра
Параметр GOP формата : M=4, N=50
Идентификатор кодека : V_MPEG4/ISO/AVC
Продолжительность : 49 м. 10 с.
Битрейт : 3 723 Кбит/сек
Ширина : 1 920 пикселей
Высота : 1 080 пикселей
Соотношение сторон : 16:9
Режим частоты кадров : Постоянный
Частота кадров : 25,000 кадров/сек
Стандарт вещания : PAL
Цветовое пространство : YUV
Субдискретизация насыщенности : 4:2:0
Битовая глубина : 8 бит
Тип развёртки : Прогрессивная
Бит/(Пиксели*Кадры) : 0.072
Размер потока : 1,28 Гбайт (95%)
Default : Да
Forced : Нет
Цветовой диапазон : Limited
Основные цвета : BT.709
Характеристики трансфера : BT.709
Коэффициенты матрицы : BT.709
Аудио
Идентификатор : 2
Формат : AC-3
Формат/Информация : Audio Coding 3
Коммерческое название : Dolby Digital
Идентификатор кодека : A_AC3
Продолжительность : 49 м. 10 с.
Вид битрейта : Постоянный
Битрейт : 192 Кбит/сек
Каналы : 2 канала
Channel layout : L R
Частота : 48,0 КГц
Частота кадров : 31,250 кадров/сек (1536 SPF)
Метод сжатия : С потерями
Размер потока : 67,5 Мбайт (5%)
Service kind : Complete Main
Default : Да
Forced : Нет

Внимание! Раздача ведётся путём добавления новых серий

Раздача ведётся путём добавления новых серий, при каждом добавлении создаётся новый торрент. Чтобы начать докачку новой серии, пользователям необходимо сделать следующее:
- Остановить скачивание.
- Удалить старый торрент у себя из клиента (старые серии удалять не надо).
- Скачать новый торрент и запустить его у себя в клиенте вместо старого, при этом указать клиенту путь в старую папку куда и должно происходить скачивание новых серий.
Ваш клиент при этом должен произвести хеширование (проверку) старой папки (если не производит сам - помогите ему сделать это), и будет докачивать только те серии которых у вас ещё нет. Старые серии при этом не удаляются, а продолжают раздаваться!
Если вы уже удалили старые серии, то предотвратить повторную закачку старых серий можно, отжав галочку в соответствующих местах при запуске нового торрента. По возможности, желательно не удалять старые серии как можно дольше, чтобы релизер не столько продолжал раздавать старые серии, а смог сконцентрироваться на новых.
Релиз от:

Release was prepared by RG Files-x

[Profile] [PM]
Display posts:    
Reply to topic

Current time is: 03-Feb 04:39

All times are UTC + 3



You cannot post new topics in this forum
You cannot reply to topics in this forum
You cannot edit your posts in this forum
You cannot delete your posts in this forum
You cannot vote in polls in this forum
You cannot attach files in this forum
You cannot download files in this forum