Фантом [1-16 серия из 16] (2019) WEB-DLRip от Files-x

Reply to topic
 
Author Message

bond74 ®

Gender: Male

Longevity: 6 months 6 days

Posts: 436

Post 12-Mar-2019 01:16

[Quote]

Фантом Год выпуска: 2019
Жанр: Драма, детектив, психологический триллер
Выпущено: Россия, Украина, Film.ua
Режиссер: Сергей Сенцов
В ролях: Юрий Чурсин, Павел Майков, Тимофей Трибунцев, Михаил Кремер, Ян Гахарманов, Михаил Тарабукин, Лиза Толубеева, Зоя Бербер, Полина Сидихина, Сергей Епишев, Александр Галибин, Виктор Проскурин
О фильме:В клинике, где проходят реабилитацию люди с психическими расстройствами, приходит в чувства утративший память мужчина. Даже доктора не имеют малейшего представления о прошлом данного пациента. Они знают только имя. Иван пребывает в режимном учреждении на протяжении последнего года. Весь этот период его пичкают сильнейшими препаратами . Единственный, кому известна истина – это директор, но он не успел поделиться правдой. Руководитель лечебницы погибает при таинственных обстоятельствах. Во время следственных мероприятий мужчина узнает одного из оперативников. Между ним и Станиславом складываются сложные взаимоотношения, но к делу подключается Артур – сосед по больничной палате. Действия своеобразного тандема позволяют установить личность убийцы. Неожиданно для Вани к нему в гости наведывается супруга в компании лучшего друга. Они пытаются объяснить, что его настоящее имя - Павел. Ранее он был весьма успешным воротилой в сфере фармацевтического бизнеса. Но недоброжелатели решили избавиться от конкурента и подстроили его исчезновение. Не менее интересной оказывается жизнь Артура, ведь его истинная личина сильно отличается от выбранного образа.
Качество: WEB-DLRip
Видео: XviD, ~ 1600 Кбит/с, 720x400, 25 кадр/с
Аудио: AC3, 2 ch, 192 Кбит/с
Продолжительность: 16 х ~ 00:50:00
Перевод: Не требуется
Субтитры: нет

Скриншоты

MediaInfo

General
Complete name : C:\00\6354\Фантом.(2019).WEBRip.Files-x\04.Фантом.(2019)..WEB-DLRip.Files-x.avi
Format : AVI
Format/Info : Audio Video Interleave
File size : 632 MiB
Duration : 49mn 4s
Overall bit rate : 1 801 Kbps
Writing application : VirtualDubMod 1.5.10.3 | www.virtualdub-fr.org || (build 2550/release)
Writing library : VirtualDubMod build 2550/release
Video
ID : 0
Format : MPEG-4 Visual
Format profile : Advanced Simple@L5
Format settings, BVOP : 1
Format settings, QPel : No
Format settings, GMC : No warppoints
Format settings, Matrix : Custom
Codec ID : XVID
Codec ID/Hint : XviD
Duration : 49mn 4s
Bit rate : 1 599 Kbps
Width : 720 pixels
Height : 400 pixels
Display aspect ratio : 16:9
Frame rate : 25.000 fps
Color space : YUV
Chroma subsampling : 4:2:0
Bit depth : 8 bits
Scan type : Progressive
Compression mode : Lossy
Bits/(Pixel*Frame) : 0.222
Stream size : 561 MiB (89%)
Writing library : XviD 73
Audio
ID : 1
Format : AC-3
Format/Info : Audio Coding 3
Mode extension : CM (complete main)
Codec ID : 2000
Duration : 49mn 4s
Bit rate mode : Constant
Bit rate : 192 Kbps
Channel(s) : 2 channels
Channel positions : Front: L R
Sampling rate : 48.0 KHz
Bit depth : 16 bits
Compression mode : Lossy
Stream size : 67.4 MiB (11%)
Alignment : Split accross interleaves
Interleave, duration : 40 ms (1.00 video frame)
Interleave, preload duration : 500 ms
Релиз от:
[Profile] [PM]
Display posts:    
Reply to topic

Current time is: 21-May 13:37

All times are UTC + 3



You cannot post new topics in this forum
You cannot reply to topics in this forum
You cannot edit your posts in this forum
You cannot delete your posts in this forum
You cannot vote in polls in this forum
You cannot attach files in this forum
You cannot download files in this forum