Фантом [1-5 серии из 16] (2019) WEBRip от GeneralFilm

Ответить на тему
 
Автор Сообщение

vsobbol ®

Пол: Мужской

Стаж: 4 месяца 2 дня

Сообщений: 138

Откуда: Донецк

Создавать темы 14-Мар-2019 23:43

[Цитировать]

Фантом
Год выпуска: 2019
Жанр: Драма, детектив, психологический триллер
Выпущено: Россия, Украина, «Film.ua»
Режиссер: Сергей Сенцов
В ролях: Юрий Чурсин, Павел Майков, Тимофей Трибунцев, Михаил Кремер, Ян Гахарманов, Михаил Тарабукин, Лиза Толубеева, Зоя Бербер, Полина Сидихина, Сергей Епишев, Александр Галибин, Виктор Проскурин
О фильме: В клинике, где проходят реабилитацию люди с психическими расстройствами, приходит в чувства утративший память мужчина. Даже доктора не имеют малейшего представления о прошлом данного пациента. Они знают только имя. Иван пребывает в режимном учреждении на протяжении последнего года. Весь этот период его пичкают сильнейшими препаратами . Единственный, кому известна истина – это директор, но он не успел поделиться правдой. Руководитель лечебницы погибает при таинственных обстоятельствах. Во время следственных мероприятий мужчина узнает одного из оперативников. Между ним и Станиславом складываются сложные взаимоотношения, но к делу подключается Артур – сосед по больничной палате. Действия своеобразного тандема позволяют установить личность убийцы. Неожиданно для Вани к нему в гости наведывается супруга в компании лучшего друга. Они пытаются объяснить, что его настоящее имя - Павел. Ранее он был весьма успешным воротилой в сфере фармацевтического бизнеса. Но недоброжелатели решили избавиться от конкурента и подстроили его исчезновение. Не менее интересной оказывается жизнь Артура, ведь его истинная личина сильно отличается от выбранного образа...
Качество: WEBRip
Видео: XviD build 73, 720x400 (16:9), 25.000 fps, ~ 1360 Kbps (~ 0.190 bit/pixel)
Аудио: 48.0 kHz, AC3, 2/0 ch, 192 kbps
Продолжительность: 5 x ~ 00:50:00
Перевод: Не требуется
Cубтитры: нет

Скриншоты

MediaInfo

General
Complete name : D:\Razdachi\Fantom.2019.WEBRip.GeneralFilm\Fantom.e01.avi
Format : AVI
Format/Info : Audio Video Interleave
File size : 557 MiB
Duration : 49 min 54 s
Overall bit rate : 1 562 kb/s
Writing application : VirtualDubMod 1.5.10.3 | www.virtualdub-fr.org || (build 2550/release)
Writing library : VirtualDubMod build 2550/release
Video
ID : 0
Format : MPEG-4 Visual
Format profile : Advanced Simple@L5
Format settings : BVOP1 / Custom Matrix
Format settings, BVOP : 1
Format settings, QPel : No
Format settings, GMC : No warppoints
Format settings, Matrix : Custom
Codec ID : XVID
Codec ID/Hint : XviD
Duration : 49 min 54 s
Bit rate : 1 360 kb/s
Width : 720 pixels
Height : 400 pixels
Display aspect ratio : 16:9
Frame rate : 25.000 FPS
Color space : YUV
Chroma subsampling : 4:2:0
Bit depth : 8 bits
Scan type : Progressive
Compression mode : Lossy
Bits/(Pixel*Frame) : 0.189
Stream size : 485 MiB (87%)
Writing library : XviD 73
Audio
ID : 1
Format : AC-3
Format/Info : Audio Coding 3
Commercial name : Dolby Digital
Codec ID : 2000
Duration : 49 min 54 s
Bit rate mode : Constant
Bit rate : 192 kb/s
Channel(s) : 2 channels
Channel layout : L R
Sampling rate : 48.0 kHz
Frame rate : 31.250 FPS (1536 SPF)
Bit depth : 16 bits
Compression mode : Lossy
Stream size : 68.5 MiB (12%)
Alignment : Split accross interleaves
Interleave, duration : 40 ms (1.00 video frame)
Interleave, preload duratio : 500 ms
Service kind : Complete Main
Релиз от:
[Профиль] [ЛС]
Показать сообщения:    
Ответить на тему

Текущее время: 18-Мар 22:59

Часовой пояс: UTC + 3



Вы не можете начинать темы
Вы не можете отвечать на сообщения
Вы не можете редактировать свои сообщения
Вы не можете удалять свои сообщения
Вы не можете голосовать в опросах
Вы не можете прикреплять файлы к сообщениям
Вы не можете скачивать файлы