Морские дьяволы. Дальние рубежи [1 сезон: 1-24 серия из 24] (2021) WEBRip от Files-x

Reply to topic
 
Author Message

bond74 ®

Gender: Male

Longevity: 5 years 7 months

Posts: 2420

Post 12-Nov-2021 21:21

[Quote]

Морские дьяволы. Дальние рубежи Год выпуска: 2021
Жанр: Боевик, приключения, детектив, криминал
Выпущено: Россия, Гамма-Продакшн
Режиссер: Михаил Баркан
В ролях: Олег Чернов, Дарья Юргенс (Лесникова), Иван Паршин, Антон Гуляев, Игорь Григорьев (III), Дарья Пашкова, Борис Чистяков, Олег Пак, Никандр Кирьянов, Александр Воробьёв (IV), Елена Купрашевич, Константин Снегов, Олег Жилин, Захар Черезов, Юлия Кубина, Андрей Шаповал, Вячеслав Григорьев, Михаил Клюкин, Родион Рудаков
О фильме: Новый сезон «Морские дьяволы. Дальние рубежи» - это продолжение популярной многосерийной франшизы «Морские дьяволы» с новыми героями отрядом «Акула» и героями предыдущих сезонов. Главная особенность нового сезона – это противостояние нашего Российского КТЦ(Контртеррористического Центра) международному Информационно-исследовательскому центру (ИАЦ) «Пандора». Статус ИАЦ - лишь прикрытие, под которым некие влиятельные западные спецслужбы ведут борьбу против России в информационной, политической, экономической и международных сферах. По сути «Пандора» - прекрасно оснащённый центр планирования диверсий против России. КТЦ в этой борьбе выступает достойнейшим противником, владеющим всеми современными технологиями борьбы – от информационных до оружейных. В новом сезоне КТЦ не только отражает атаки со стороны «Пандоры», но и работает на опережение. Само КТЦ по сравнению с прошлыми сезонами значительно изменилось. Это теперь не стационарное помещение, а мобильный штаб, который за считанные минуты может быть развёрнут в самолёте, в поезде, в морском судне, в микроавтобусе, в трейлере, в чистом поле – словом, там, где того требует текущая ситуация. В составе КТЦ легендарные Батя, Бизон, Пригов и иногда Багира, которая помогает нашим героям в самых тяжёлых ситуациях, находясь на выполнении секретного задания, сюжет которого раскроется в финальном фильме сезона. Главное отличие нового сезона от предыдущих – это то, что перед Бизоном поставлена задача переформировать отряд «НЕРП» в отряд «АКУЛА», а также укомплектовать его новыми бойцами, что Бизон с успехом выполняет. На этот раз спецподразделению «АКУЛА» предстоит выполнение боевых задач, как на дальних рубежах нашей страны, так и за ее пределами.
Качество: WEBRip
Видео: XviD, ~ 1100 Кбит/с, 720x400, 25 кадр/с
Аудио: AC3, 2 ch, 192 Кбит/с
Продолжительность: 20 х ~ 00:51:00
Перевод: Не требуется
Субтитры: Русские

Скриншоты

MediaInfo

General
General
Complete name : H:\fiiles x\Морские дьяволы. Особое задание.2020.WEB-DLRip.Files-x\01. Морские дьяволы. Особое задание.2020.WEB-DLRip.Files-x.avi
Format : AVI
Format/Info : Audio Video Interleave
File size : 623 MiB
Duration : 48mn 18s
Overall bit rate : 1 802 Kbps
Writing application : VirtualDubMod 1.5.10.3 | www.virtualdub-fr.org || (build 2550/release)
Writing library : VirtualDubMod build 2550/release
Video
ID : 0
Format : MPEG-4 Visual
Format profile : Advanced Simple@L5
Format settings, BVOP : 1
Format settings, QPel : No
Format settings, GMC : No warppoints
Format settings, Matrix : Custom
Codec ID : XVID
Codec ID/Hint : XviD
Duration : 48mn 18s
Bit rate : 1 600 Kbps
Width : 720 pixels
Height : 400 pixels
Display aspect ratio : 16:9
Frame rate : 25.000 fps
Color space : YUV
Chroma subsampling : 4:2:0
Bit depth : 8 bits
Scan type : Progressive
Compression mode : Lossy
Bits/(Pixel*Frame) : 0.222
Stream size : 553 MiB (89%)
Writing library : XviD 73
Audio
ID : 1
Format : AC-3
Format/Info : Audio Coding 3
Mode extension : CM (complete main)
Codec ID : 2000
Duration : 48mn 18s
Bit rate mode : Constant
Bit rate : 192 Kbps
Channel(s) : 2 channels
Channel positions : Front: L R
Sampling rate : 48.0 KHz
Bit depth : 16 bits
Compression mode : Lossy
Stream size : 66.3 MiB (11%)
Alignment : Split accross interleaves
Interleave, duration : 40 ms (1.00 video frame)
Interleave, preload duration : 500 ms

Внимание! Раздача ведётся путём добавления новых серий

Раздача ведётся путём добавления новых серий, при каждом добавлении создаётся новый торрент. Чтобы начать докачку новой серии, пользователям необходимо сделать следующее:
- Остановить скачивание.
- Удалить старый торрент у себя из клиента (старые серии удалять не надо).
- Скачать новый торрент и запустить его у себя в клиенте вместо старого, при этом указать клиенту путь в старую папку куда и должно происходить скачивание новых серий.
Ваш клиент при этом должен произвести хеширование (проверку) старой папки (если не производит сам - помогите ему сделать это), и будет докачивать только те серии которых у вас ещё нет. Старые серии при этом не удаляются, а продолжают раздаваться!
Релиз от:

Release was prepared by RG Files-x

[Profile] [PM]
Display posts:    
Reply to topic

Current time is: 24-Jun 07:45

All times are UTC + 3



You cannot post new topics in this forum
You cannot reply to topics in this forum
You cannot edit your posts in this forum
You cannot delete your posts in this forum
You cannot vote in polls in this forum
You cannot attach files in this forum
You cannot download files in this forum