Новая Битва экстрасенсов [1 сезон: 1-16 выпуск из 16] (2022) WEBRip от Files-x

Reply to topic
 
Author Message

papa1951deda ®

Gender: Male

Longevity: 5 years 7 months

Posts: 1726

Location: Казахстан

Post 11-Sep-2022 19:00

[Quote]

Новая Битва экстрасенсов Год выпуска: 2022
Жанр: Паранормальное шоу, документальный, мистика, экстрасенсы, сверхъестественное
Выпущено: Россия, АО «ФМП Групп» по заказу АО «ТНТ-Телесеть»
Режиссер: Олег Чаурс
Ведущий: Марат Башаров
Описание: В проекте «Битва экстрасенсов» участвуют люди, обладающими необычными способностями. Ведьмы и колдуны, эзотерики, маги, целители, гадатели и многие другие соревнуются за победу и звание лучшего экстрасенса сезона. «Битва экстрасенсов» – культовый проект и знаковое шоу в истории ТНТ. Каждый год люди, которые называют себя экстрасенсами, доказывают свои способности зрителям, проходя сложные испытания. Ведущие проекта наблюдают за участниками и чистотой прохождения заданий, которые усложняются из года в год. За время существования шоу в нём приняли участие несколько сотен людей с необычными способностями. В рамках проекта участники не только проходят испытания, но и помогают реальным людям справиться с их бедами, раскрывают загадки истории, проливают свет на резонансные события и преступления.
Качество: WEBRip
Видео: XviD, ~ 1600 Кбит/с, 720x400
Аудио: AC3, 2 ch, 192 Кбит/с
Продолжительность: 1 х ~ 01:30:00
Перевод: Не требуется
Субтитры: Нет

Скриншоты



MediaInfo

Общее
Полное имя : C:\films\Новая Битва экстрасенсов.s01.2022.WEBRip.Files-x\01. Новая Битва экстрасенсов.s01.2022.WEBRip.Files-x.avi
Формат : AVI
Формат/Информация : Audio Video Interleave
Размер файла : 1,14 Гбайт
Продолжительность : 1 ч. 30 м.
Общий поток : 1 802 Кбит/сек
Программа кодирования : VirtualDubMod 1.5.10.3 | https://www.virtualdub-fr.org || (build 2550/release)
Библиотека кодирования : VirtualDubMod build 2550/release
Видео
Идентификатор : 0
Формат : MPEG-4 Visual
Профиль формата : Advanced Simple@L5
Настройки формата : BVOP1 / Custom Matrix
Параметр BVOP формата : 1
Параметр QPel формата : Нет
Параметр GMC формата : Без точки перехода
Параметр матрицы формата : Выборочная
Идентификатор кодека : XVID
Идентификатор кодека/Подсказка : XviD
Продолжительность : 1 ч. 30 м.
Битрейт : 1 600 Кбит/сек
Ширина : 720 пикселей
Высота : 400 пикселей
Соотношение сторон : 16:9
Частота кадров : 25,000 кадров/сек
Цветовое пространство : YUV
Субдискретизация насыщенности : 4:2:0
Битовая глубина : 8 бит
Тип развёртки : Прогрессивная
Метод сжатия : С потерями
Бит/(Пиксели*Кадры) : 0.222
Размер потока : 1,01 Гбайт (89%)
Библиотека кодирования : XviD 1.2.1 (UTC 2008-12-04)
Аудио
Идентификатор : 1
Формат : AC-3
Формат/Информация : Audio Coding 3
Коммерческое название : Dolby Digital
Идентификатор кодека : 2000
Продолжительность : 1 ч. 30 м.
Вид битрейта : Постоянный
Битрейт : 192 Кбит/сек
Каналы : 2 канала
Channel layout : L R
Частота : 48,0 КГц
Частота кадров : 31,250 кадров/сек (1536 SPF)
Метод сжатия : С потерями
Размер потока : 124 Мбайт (11%)
Выравнивание : Разделение по промежуткам
Продолжительность промежутка : 40 мс. (1,00 видеокадр)
Время предзагрузки промежутка : 500 мс.
Service kind : Complete Main

Внимание! Раздача ведётся путём добавления новых серий

Раздача ведётся путём добавления новых серий, при каждом добавлении создаётся новый торрент. Чтобы начать докачку новой серии, пользователям необходимо сделать следующее:
- Остановить скачивание.
- Удалить старый торрент у себя из клиента (старые серии удалять не надо).
- Скачать новый торрент и запустить его у себя в клиенте вместо старого, при этом указать клиенту путь в старую папку куда и должно происходить скачивание новых серий.
Ваш клиент при этом должен произвести хеширование (проверку) старой папки (если не производит сам - помогите ему сделать это), и будет докачивать только те серии которых у вас ещё нет. Старые серии при этом не удаляются, а продолжают раздаваться!
Релиз от:

Release was prepared by RG Files-x

[Profile] [PM]
Display posts:    
Reply to topic

Current time is: 19-Jul 12:24

All times are UTC + 3



You cannot post new topics in this forum
You cannot reply to topics in this forum
You cannot edit your posts in this forum
You cannot delete your posts in this forum
You cannot vote in polls in this forum
You cannot attach files in this forum
You cannot download files in this forum