Новая Битва экстрасенсов [1 сезон: 1-16 выпуск из 16] (2022) WEBRip 1080p от Files-x

Reply to topic
 
Author Message

papa1951deda ®

Gender: Male

Longevity: 5 years 7 months

Posts: 1726

Location: Казахстан

Post 11-Sep-2022 19:11

[Quote]

Новая Битва экстрасенсов Год выпуска: 2022
Жанр: Паранормальное шоу, документальный, мистика, экстрасенсы, сверхъестественное
Выпущено: Россия, АО «ФМП Групп» по заказу АО «ТНТ-Телесеть»
Режиссер: Олег Чаурс
Ведущий: Марат Башаров
Описание: В проекте «Битва экстрасенсов» участвуют люди, обладающими необычными способностями. Ведьмы и колдуны, эзотерики, маги, целители, гадатели и многие другие соревнуются за победу и звание лучшего экстрасенса сезона. «Битва экстрасенсов» – культовый проект и знаковое шоу в истории ТНТ. Каждый год люди, которые называют себя экстрасенсами, доказывают свои способности зрителям, проходя сложные испытания. Ведущие проекта наблюдают за участниками и чистотой прохождения заданий, которые усложняются из года в год. За время существования шоу в нём приняли участие несколько сотен людей с необычными способностями. В рамках проекта участники не только проходят испытания, но и помогают реальным людям справиться с их бедами, раскрывают загадки истории, проливают свет на резонансные события и преступления.
Качество: WEBRip 1080p
Видео: MPEG-4 AVC, ~ 7826 Кбит/с, 1920x1080
Аудио: AC3, 2 ch, 192 Кбит/с
Продолжительность: 1 х ~ 01:30:00
Перевод: Не требуется
Субтитры: Нет

Скриншоты



MediaInfo

Общее
Уникальный идентификатор : 188193617174873065172557896932333849215 (0x8D94C5B338E17DD9BBFDC7DDCFDA0A7F)
Полное имя : C:\films\Новая Битва экстрасенсов.s01.2022.WEB-DL 1080p.Files-x\01. Новая Битва экстрасенсов.s01.2022.WEB-DL 1080p.Files-x.mkv
Формат : Matroska
Версия формата : Version 2
Размер файла : 5,16 Гбайт
Продолжительность : 1 ч. 30 м.
Режим общего битрейта : Переменный
Общий поток : 8 181 Кбит/сек
Дата кодирования : UTC 2022-09-11 14:39:34
Программа кодирования : mkvmerge v7.8.0 ('River Man') 32bit built on Apr 3 2015 12:11:22
Библиотека кодирования : libebml v1.3.1 + libmatroska v1.4.2
Видео
Идентификатор : 1
Формат : AVC
Формат/Информация : Advanced Video Codec
Профиль формата : High@L4.1
Настройки формата : CABAC / 1 Ref Frames
Параметр CABAC формата : Да
Параметр RefFrames формата : 1 кадр
Параметр GOP формата : M=1, N=50
Идентификатор кодека : V_MPEG4/ISO/AVC
Продолжительность : 1 ч. 30 м.
Вид битрейта : Переменный
Битрейт : 7 826 Кбит/сек
Максимальный битрейт : 8 000 Кбит/сек
Ширина : 1 920 пикселей
Высота : 1 080 пикселей
Соотношение сторон : 16:9
Режим частоты кадров : Постоянный
Частота кадров : 25,000 кадров/сек
Цветовое пространство : YUV
Субдискретизация насыщенности : 4:2:0
Битовая глубина : 8 бит
Тип развёртки : Прогрессивная
Бит/(Пиксели*Кадры) : 0.151
Размер потока : 4,94 Гбайт (96%)
Default : Да
Forced : Нет
Цветовой диапазон : Limited
Основные цвета : BT.709
Характеристики трансфера : BT.709
Коэффициенты матрицы : BT.709
Аудио
Идентификатор : 2
Формат : AC-3
Формат/Информация : Audio Coding 3
Коммерческое название : Dolby Digital
Идентификатор кодека : A_AC3
Продолжительность : 1 ч. 30 м.
Вид битрейта : Постоянный
Битрейт : 192 Кбит/сек
Каналы : 2 канала
Channel layout : L R
Частота : 44,1 КГц
Частота кадров : 28,711 кадров/сек (1536 SPF)
Метод сжатия : С потерями
Размер потока : 124 Мбайт (2%)
Service kind : Complete Main
Default : Да
Forced : Нет

Внимание! Раздача ведётся путём добавления новых серий

Раздача ведётся путём добавления новых серий, при каждом добавлении создаётся новый торрент. Чтобы начать докачку новой серии, пользователям необходимо сделать следующее:
- Остановить скачивание.
- Удалить старый торрент у себя из клиента (старые серии удалять не надо).
- Скачать новый торрент и запустить его у себя в клиенте вместо старого, при этом указать клиенту путь в старую папку куда и должно происходить скачивание новых серий.
Ваш клиент при этом должен произвести хеширование (проверку) старой папки (если не производит сам - помогите ему сделать это), и будет докачивать только те серии которых у вас ещё нет. Старые серии при этом не удаляются, а продолжают раздаваться!
Релиз от:

Release was prepared by RG Files-x

[Profile] [PM]
Display posts:    
Reply to topic

Current time is: 19-Jul 12:49

All times are UTC + 3



You cannot post new topics in this forum
You cannot reply to topics in this forum
You cannot edit your posts in this forum
You cannot delete your posts in this forum
You cannot vote in polls in this forum
You cannot attach files in this forum
You cannot download files in this forum