СуперИвановы [1 сезон: 1-40 серии из 40] (2023) HDTVRip от Files-x

Reply to topic
 
Author Message

Nicodem ®

Gender: Male

Longevity: 5 years 7 months

Posts: 1438

Post 14-Aug-2023 17:22

[Quote]

Суперивановы
Год выпуска: 2023
Жанр: Детектив, комедия
Выпущено: Россия, ТВ-3, 1-2-3 Production
Режиссер : Юрий Осипов
В ролях: Михаил Полицеймако, Екатерина Волкова (II), Ольга Науменко, Мария Абрамова (II), София Петрова, Марина Вертегел, Ольга Моровова, Ольга Долинина, Анастасия Шульженко, Елизавета Гончаренко, Анна Орлянская, Владислав Картамышев, Сергей Шароватов, Александра Костомарова, Роман Титов, Наталья Тищенко, Святослав Ставцев, Олег Грисевич, Ева Кудинова, Екатерина Горбачева (II), Юрий Ляхов, Алина Чеченкова, Павел Стонт, Артур Каспранов, Алексей Ермошкин, Марина Кондратьева, Роман Семейко, Анастасия Воевода
О фильме: Женщины семьи Ивановых обладают удивительным даром – каждая своим. Дарина видит людей насквозь, её мама Тамара Петровна умеет варить зелья, а дар дочери-подростка Кати зрителю ещё предстоит узнать. И только супруг Дарины, школьный учитель физики Валера, остаётся верен науке. Вскоре сарафанное радио разносит слухи о волшебном семействе, и Ивановы начинают помогать окружающим в решении их житейских проблем. Вот только помогут ли их способности разобраться с собственными семейными историями?

Качество: HDTVRip
Видео: XviD, ~ 1605 Кбит/с, 720x304, 25 кадр/с
Аудио: AC3, 2 ch, 192 Кбит/с
Продолжительность: 40 х 00:45:44
Перевод: Не требуется
Субтитры: Нет

Скриншоты



MediaInfo

General
Complete name : C:01.СуперИвановы.s01.E01.(2023).HDTVRip.by.Nicodem.Files-x.avi
Format : AVI
Format/Info : Audio Video Interleave
File size : 591 MiB
Duration : 45mn 44s
Overall bit rate : 1 806 Kbps
Writing application : VirtualDubMod 1.5.10.3 | www.virtualdub-fr.org || (build 2550/release)
Writing library : VirtualDubMod build 2550/release
Video
ID : 0
Format : MPEG-4 Visual
Format profile : Advanced Simple@L5
Format settings, BVOP : 1
Format settings, QPel : No
Format settings, GMC : No warppoints
Format settings, Matrix : Custom
Codec ID : XVID
Codec ID/Hint : XviD
Duration : 45mn 44s
Bit rate : 1 605 Kbps
Width : 720 pixels
Height : 304 pixels
Display aspect ratio : 2.35:1
Frame rate : 25.000 fps
Color space : YUV
Chroma subsampling : 4:2:0
Bit depth : 8 bits
Scan type : Progressive
Compression mode : Lossy
Bits/(Pixel*Frame) : 0.293
Stream size : 525 MiB (89%)
Writing library : XviD 73
Audio
ID : 1
Format : AC-3
Format/Info : Audio Coding 3
Mode extension : CM (complete main)
Codec ID : 2000
Duration : 45mn 44s
Bit rate mode : Constant
Bit rate : 192 Kbps
Channel(s) : 2 channels
Channel positions : Front: L R
Sampling rate : 48.0 KHz
Bit depth : 16 bits
Compression mode : Lossy
Stream size : 62.8 MiB (11%)
Alignment : Split accross interleaves
Interleave, duration : 40 ms (1.00 video frame)
Interleave, preload duration : 500 ms

Содержание

1 серия "Новоселье"
2 серия "Снова в школу"
3 серия "Торжество"
4 серия "В поисках дара"
5 серия "Татуировка"
6 серия "Сизифов труд"
7 серия "Двуликий Янус"
8 сения "Предчувствие"
9 серия "Работа мечты"
10 серия "Запретная любовь"
11 серия "Голос сердца"
12 серия "Обручальное кольцо"
13 серия "Идеальная свекровь"
14 серия "Горькая правда"
15 серия "Заклятые подруги"
16 серия "Школьное проклятие"
17 серия "Смертельная обида"
18 серия "Любовь вопреки"
19 серия "Ученик"
20 серия "Беглец"
21 серия "Чего хотят женщины"
22 серия "Шальные деньги"
23 серия "Зов с того света"
24 серия "Похищение"
25 серия "Громкое молчание"
26 серия "Незваный гость"
27 серия "Клеопатра"
28 серия "Сладкая булочка"
29 серия "Глубокий вдох"
30 серия "Охота на ведьм"
31 серия "Побег в западню"
32 серия "Поход"
33 серия "Невидимка"
34 серия "Секретный ингредиент"
35 серия "Маленькие ножки"
36 серия "Активное долголетие"
37 серия "Все хорошо в меру"
38 серия "Последний матч"
39 серия "Активисты"
40 серия "Это судьба"

Раздача ведётся путём добавления новых серий

Внимание! Раздача ведётся путём добавления новых серий; при каждом добавлении создаётся новый торрент.
Чтобы начать докачку новой серии, пользователям необходимо сделать следующее:
1. Остановить скачивание;
2. Удалить старый торрент у себя из клиента (старые серии удалять не надо);
3. Скачать новый торрент и запустить его у себя в клиенте вместо старого, при этом указать клиенту путь в старую папку куда и должно происходить скачивание новых серий. Ваш клиент при этом должен произвести хеширование (проверку) старой папки и будет докачивать только те серии, которых у вас ещё нет. Старые серии при этом не удаляются, а продолжают раздаваться! Eсли вы уже удалили старые серии, то предотвратить повторную закачку старых серий можно, отжав галочку в соответствующих местах при запуске нового торрента.
Релиз от:

Release was prepared by RG Files-x

[Profile] [PM]

Nicodem ®

Gender: Male

Longevity: 5 years 7 months

Posts: 1438

Post 14-Sep-2023 15:34 (after 30 days)

[Quote]

Внимание!
Замена 19-ой серии!
Добавлена 20-ая серия!
[Profile] [PM]
Display posts:    
Reply to topic

Current time is: 24-Jun 07:23

All times are UTC + 3



You cannot post new topics in this forum
You cannot reply to topics in this forum
You cannot edit your posts in this forum
You cannot delete your posts in this forum
You cannot vote in polls in this forum
You cannot attach files in this forum
You cannot download files in this forum