Напарники [1-20 серии из 20] (2021) WEBRip-AVC от Files-х

Reply to topic
 
Author Message

Серый1779 ®

Gender: Male

Longevity: 5 years 7 months

Posts: 3606

Location: Украина

Post 19-Sep-2023 00:40

[Quote]

Напарники
Год выпуска: 2021
Жанр: Боевик, детектив, комедия
Выпущено: Россия, Кинокомпания «Киностудия КИТ»
Режиссер: Михаил Кабанов
В ролях: Сергей Пускепалис, Андрей Багиров, Маруся Климова, Максим Литовченко, Сергей Генкин, Екатерина Стулова, Сергей Багиров, Григорий Перель, Александр Поляк, Юрий Ваксман, Сергей Шарифуллин, Денис Дружинин, Артур Руденко, Анжела Кольцова, Моряна Анттонен-Шестакова, Михаил Владимиров, Игорь Поселенов
О фильме: Иван Титов – лучший оперативник в городе. Он всегда работал без напарников, но в один момент ему навязывают сразу двоих – генеральского сына Влада и недавнюю выпускницу университета, «вечную отличницу» Леру. Влад, получивший диплом юриста для галочки, мечтает уехать в Лондон, но вынужден исполнить волю отца-генерала - поработать год в оперативном отделе. Лера же хочет доказать, что действительно призвана быть полицейским и училась на красный диплом не зря. Титов раздражен — ему приходится возиться с этой парочкой, отвечать за них, да ещё и вытаскивать из историй, в которые они постоянно влипают. Откуда ему знать, что именно эти молодые ребята научат его иначе смотреть на жизнь и он наконец решится на важные перемены…
Качество: WEBRip-AVC
Видео: MPEG-4 AVC, ~ 2000 Кбит/с, 1024x432, 25 кадр/с
Аудио: AC3, 2 ch, 192 Кбит/с
Продолжительность: 20 x ~ 00:48:48
Перевод: Не требуется
Cубтитры: Русские

Скриншоты



MediaInfo

General
Unique ID : 199393069147766647524285514544322905104 (0x9601B5505CFDD1C0D446DAB59DA30410)
Complete name : F:\Напарники.(2021).WEBRip.(AVC).Files-x\01.Напарники.(2021).WEBRip.(AVC).by.Серый1779.Files-x.mkv
Format : Matroska
Format version : Version 4 / Version 2
File size : 766 MiB
Duration : 48 min 48 s
Overall bit rate : 2 193 kb/s
Encoded date : UTC 2023-09-18 21:33:45
Writing application : mkvmerge v32.0.0 ('Astral Progressions') 64-bit
Writing library : libebml v1.3.7 + libmatroska v1.5.0
Video
ID : 1
Format : AVC
Format/Info : Advanced Video Codec
Format profile : High@L4.1
Format settings : CABAC / 9 Ref Frames
Format settings, CABAC : Yes
Format settings, RefFrames : 9 frames
Codec ID : V_MPEG4/ISO/AVC
Duration : 48 min 48 s
Bit rate : 2 000 kb/s
Width : 1 024 pixels
Height : 576 pixels
Display aspect ratio : 16:9
Frame rate mode : Constant
Frame rate : 25.000 FPS
Color space : YUV
Chroma subsampling : 4:2:0
Bit depth : 8 bits
Scan type : Progressive
Bits/(Pixel*Frame) : 0.136
Stream size : 698 MiB (91%)
Writing library : x264 core 146 r2538 121396c
Encoding settings : cabac=1 / ref=9 / deblock=1:-2:-1 / analyse=0x3:0x133 / me=umh / subme=9 / psy=1 / psy_rd=1.00:0.15 / mixed_ref=1 / me_range=32 / chroma_me=1 / trellis=2 / 8x8dct=1 / cqm=0 / deadzone=21,11 / fast_pskip=0 / chroma_qp_offset=-3 / threads=18 / lookahead_threads=3 / sliced_threads=0 / nr=0 / decimate=1 / interlaced=0 / bluray_compat=0 / constrained_intra=0 / bframes=9 / b_pyramid=2 / b_adapt=2 / b_bias=0 / direct=1 / weightb=1 / open_gop=0 / weightp=2 / keyint=250 / keyint_min=25 / scenecut=40 / intra_refresh=0 / rc=2pass / mbtree=0 / bitrate=2000 / ratetol=1.0 / qcomp=0.60 / qpmin=0 / qpmax=69 / qpstep=4 / cplxblur=20.0 / qblur=0.5 / ip_ratio=1.40 / pb_ratio=1.30 / aq=2:1.00
Default : Yes
Forced : No
Color range : Limited
Color primaries : BT.709
Transfer characteristics : BT.709
Matrix coefficients : BT.709
Audio
ID : 2
Format : AC-3
Format/Info : Audio Coding 3
Format settings, Endianness : Big
Codec ID : A_AC3
Duration : 48 min 48 s
Bit rate mode : Constant
Bit rate : 192 kb/s
Channel(s) : 2 channels
Channel positions : Front: L R
Sampling rate : 48.0 kHz
Frame rate : 31.250 FPS (1536 SPF)
Bit depth : 16 bits
Compression mode : Lossy
Stream size : 67.0 MiB (9%)
Service kind : Complete Main
Default : Yes
Forced : No
Text
ID : 3
Format : UTF-8
Codec ID : S_TEXT/UTF8
Codec ID/Info : UTF-8 Plain Text
Duration : 48 min 29 s
Bit rate : 113 b/s
Count of elements : 714
Stream size : 40.3 KiB (0%)
Default : Yes
Forced : No

Раздача ведётся путём добавления новых серий

Внимание! Раздача ведётся путём добавления новых серий; при каждом добавлении создаётся новый торрент.
Чтобы начать докачку новой серии, пользователям необходимо сделать следующее:
1. Остановить скачивание;
2. Удалить старый торрент у себя из клиента (старые серии удалять не надо);
3. Скачать новый торрент и запустить его у себя в клиенте вместо старого, при этом указать клиенту путь в старую папку куда и должно происходить скачивание новых серий. Ваш клиент при этом должен произвести хеширование (проверку) старой папки и будет докачивать только те серии, которых у вас ещё нет. Старые серии при этом не удаляются, а продолжают раздаваться! Eсли вы уже удалили старые серии, то предотвратить повторную закачку старых серий можно, отжав галочку в соответствующих местах при запуске нового торрента.
Релиз от:

Release was prepared by RG Files-x

[Profile] [PM]
Display posts:    
Reply to topic

Current time is: 24-Jun 05:44

All times are UTC + 3



You cannot post new topics in this forum
You cannot reply to topics in this forum
You cannot edit your posts in this forum
You cannot delete your posts in this forum
You cannot vote in polls in this forum
You cannot attach files in this forum
You cannot download files in this forum