Час дьявола (Час очищения) / The Cleansing Hour (2019) BDRip-AVC | iTunes

Reply to topic
 
Author Message

HardwareMining ®

Gender: Male

Longevity: 4 years 8 months

Posts: 626

Post 28-Sep-2023 18:00

[Quote]

Час дьявола / Час очищения / The Cleansing Hour / The Devil's Hour
«С демонами шутки плохи» Год выпуска: 2019
Жанр: ужасы, фэнтези
Выпущено: США | Skubalon
Режиссер: Дэмиен ЛеВек
В ролях: Райан Гузман, Кайл Галлнер, Тара Карсиан, Джоэнна Дэвид, Эмма Холцер, Аликс Анджелис, Крис Лью Кум Хой, Джулия Намани, Мэтт Раймо, Дэниэл Хоффман-Гилл
О фильме:
Двое аферистов добились успеха, запустив онлайн-трансляции обрядов экзорцизма, а на самом деле каждый выпуск — это тщательно продуманная постановка. Но в этом прямом эфире им придётся иметь дело с настоящим демоном.

Качество: BDRip-AVC
Видео: AVC, 1024x426 (2.40:1), 23,976 fps, 1305 Kbit/s (0.125 bit/pixel)
Аудио: русский, AC3, 5.1, 48 kHz, 384 kbps CBR
Продолжительность: 01:34:56
Перевод: Дублированный | iTunes
Субтитры: Отсутствуют

Скриншоты

MediaInfo

General
Unique ID : 240116420256586151814310884765224485383 (0xB4A4BD8A45CB27DABD04F3B417A14207)
Complete name : G:\GF\The.Cleansing.Hour.2019.BDRip.AVC.Rip.by.HardwareMining.R.G.Generalfilm.mkv
Format : Matroska
Format version : Version 4
File size : 1.12 GiB
Duration : 1 h 34 min
Overall bit rate : 1 690 kb/s
Frame rate : 23.976 FPS
Movie name : The.Cleansing.Hour.2019.BDRip.AVC.Rip.by.HardwareMining.R.G.Generalfilm
Encoded date : 2023-09-28 14:49:31 UTC
Writing application : mkvmerge v6.8.0 ('Theme for Great Cities') 64bit built on Mar 2 2014 21:34:26
Writing library : libebml v1.3.0 + libmatroska v1.4.1
Cover : Yes
Attachments : cover.png
Video
ID : 1
Format : AVC
Format/Info : Advanced Video Codec
Format profile : High@L4.1
Format settings : CABAC / 10 Ref Frames
Format settings, CABAC : Yes
Format settings, Reference frames : 10 frames
Codec ID : V_MPEG4/ISO/AVC
Duration : 1 h 34 min
Bit rate : 1 305 kb/s
Width : 1 024 pixels
Height : 426 pixels
Display aspect ratio : 2.40:1
Frame rate mode : Constant
Frame rate : 23.976 (24000/1001) FPS
Color space : YUV
Chroma subsampling : 4:2:0
Bit depth : 8 bits
Scan type : Progressive
Bits/(Pixel*Frame) : 0.125
Stream size : 864 MiB (75%)
Writing library : x264 core 148 r2638 7599210
Encoding settings : cabac=1 / ref=10 / deblock=1:-2:-1 / analyse=0x3:0x113 / me=umh / subme=10 / psy=1 / psy_rd=0.00:0.15 / mixed_ref=1 / me_range=32 / chroma_me=1 / trellis=2 / 8x8dct=1 / cqm=0 / deadzone=21,11 / fast_pskip=0 / chroma_qp_offset=-3 / threads=6 / lookahead_threads=1 / sliced_threads=0 / nr=0 / decimate=0 / interlaced=0 / bluray_compat=0 / constrained_intra=0 / bframes=10 / b_pyramid=2 / b_adapt=2 / b_bias=0 / direct=1 / weightb=1 / open_gop=0 / weightp=2 / keyint=240 / keyint_min=23 / scenecut=40 / intra_refresh=0 / rc_lookahead=40 / rc=2pass / mbtree=0 / bitrate=1305 / ratetol=1.0 / qcomp=0.65 / qpmin=0 / qpmax=69 / qpstep=4 / cplxblur=20.0 / qblur=0.5 / vbv_maxrate=50000 / vbv_bufsize=65500 / nal_hrd=none / filler=0 / ip_ratio=1.40 / pb_ratio=1.30 / aq=1:2.00
Language : English
Default : Yes
Forced : No
Audio
ID : 2
Format : AC-3
Format/Info : Audio Coding 3
Commercial name : Dolby Digital
Codec ID : A_AC3
Duration : 1 h 34 min
Bit rate mode : Constant
Bit rate : 384 kb/s
Channel(s) : 6 channels
Channel layout : L R C LFE Ls Rs
Sampling rate : 48.0 kHz
Frame rate : 31.250 FPS (1536 SPF)
Compression mode : Lossy
Stream size : 261 MiB (23%)
Title : Dub | iTunes
Language : Russian
Service kind : Complete Main
Default : Yes
Forced : Yes
Menu
00:00:00.000 : en:00:00:00.000
00:08:11.324 : en:00:08:11.324
00:14:08.014 : en:00:14:08.014
00:20:48.080 : en:00:20:48.080
00:28:01.305 : en:00:28:01.305
00:34:16.221 : en:00:34:16.221
00:41:57.807 : en:00:41:57.807
00:48:49.844 : en:00:48:49.844
00:56:34.725 : en:00:56:34.725
01:04:50.178 : en:01:04:50.178
01:12:03.694 : en:01:12:03.694
01:20:29.867 : en:01:20:29.867
Релиз от:
[Profile] [PM]
Display posts:    
Reply to topic

Current time is: 24-Jun 07:43

All times are UTC + 3



You cannot post new topics in this forum
You cannot reply to topics in this forum
You cannot edit your posts in this forum
You cannot delete your posts in this forum
You cannot vote in polls in this forum
You cannot attach files in this forum
You cannot download files in this forum