С чистого листа [1-4 серии из 4] (2022) WEBRip от Files-х

Reply to topic
 
Author Message

Серый1779 ®

Gender: Male

Longevity: 5 years 7 months

Posts: 3606

Location: Украина

Post 20-Nov-2023 01:48

[Quote]

С чистого листа Год выпуска: 2022
Жанр: Мелодрама
Выпущено: Россия, Кинокомпания «Кинокомпания Альянс»
Режиссер: Вячеслав Лавров
В ролях: Юлия Франц, Елена Панова, Александр Макогон, Андрей Бутин, Алексей Назаров (II)
О фильме: Даша Ермакова накануне свадьбы расстаётся с женихом и переезжает в Москву, чтобы начать жизнь с чистого листа. Не найдя достойную работу и жильё, она соглашается на подработку у известного психотерапевта Михаила Литовченко. Вскоре она подвергается нападению, получает сильное сотрясение мозга и теряет память. А когда приходит в себя, ей говорят, что она - Ирина Литовченко, жена Михаила. Даше предстоит разобраться, кто она на самом деле, вспомнить свою любовь, которую она встретила незадолго до трагических событий, а еще выяснить, куда и почему пропала настоящая Ирина Литовченко.
Качество: WEBRip
Видео: XviD, ~ 1450 Кбит/с, 720x400, 25 кадр/с
Аудио: AC3, 2 ch, 192 Кбит/с
Продолжительность: 1 х ~ 03:05:33
Перевод: Не требуется
Cубтитры: Русские

Скриншоты



MediaInfo

General
Complete name : F:\С чистого листа.(2023).WEBRip.Files-x\С чистого листа.(2023).WEBRip.by.Серый1779.Files-x.avi
Format : AVI
Format/Info : Audio Video Interleave
Format profile : OpenDML
File size : 2.14 GiB
Duration : 3 h 5 min
Overall bit rate : 1 651 kb/s
Writing application : VirtualDubMod 1.5.10.3 | www.virtualdub-fr.org || (build 2550/release)
Writing library : VirtualDubMod build 2550/release
Video
ID : 0
Format : MPEG-4 Visual
Format profile : Advanced Simple@L5
Format settings : BVOP1 / Custom Matrix
Format settings, BVOP : 1
Format settings, QPel : No
Format settings, GMC : No warppoints
Format settings, Matrix : Custom
Codec ID : XVID
Codec ID/Hint : XviD
Duration : 3 h 5 min
Bit rate : 1 447 kb/s
Width : 720 pixels
Height : 400 pixels
Display aspect ratio : 16:9
Frame rate : 25.000 FPS
Color space : YUV
Chroma subsampling : 4:2:0
Bit depth : 8 bits
Scan type : Progressive
Compression mode : Lossy
Bits/(Pixel*Frame) : 0.201
Stream size : 1.87 GiB (88%)
Writing library : XviD 73
Audio
ID : 1
Format : AC-3
Format/Info : Audio Coding 3
Format settings, Endianness : Big
Codec ID : 2000
Duration : 3 h 5 min
Bit rate mode : Constant
Bit rate : 192 kb/s
Channel(s) : 2 channels
Channel positions : Front: L R
Sampling rate : 48.0 kHz
Frame rate : 31.250 FPS (1536 SPF)
Bit depth : 16 bits
Compression mode : Lossy
Stream size : 255 MiB (12%)
Alignment : Split accross interleaves
Interleave, duration : 40 ms (1.00 video frame)
Interleave, preload duration : 500 ms
Service kind : Complete Main

Внимание! Раздача ведётся путём добавления новых серий

Раздача ведётся путём добавления новых серий, при каждом добавлении создаётся новый торрент. Чтобы начать докачку новой серии, пользователям необходимо сделать следующее:
- Остановить скачивание.
- Удалить старый торрент у себя из клиента (старые серии удалять не надо).
- Скачать новый торрент и запустить его у себя в клиенте вместо старого, при этом указать клиенту путь в старую папку куда и должно происходить скачивание новых серий.
Ваш клиент при этом должен произвести хеширование (проверку) старой папки (если не производит сам - помогите ему сделать это), и будет докачивать только те серии которых у вас ещё нет. Старые серии при этом не удаляются, а продолжают раздаваться!
Релиз от:

Release was prepared by RG Files-x

[Profile] [PM]
Display posts:    
Reply to topic

Current time is: 24-Jun 05:28

All times are UTC + 3



You cannot post new topics in this forum
You cannot reply to topics in this forum
You cannot edit your posts in this forum
You cannot delete your posts in this forum
You cannot vote in polls in this forum
You cannot attach files in this forum
You cannot download files in this forum