Это жизнь [1-4 серии из 4] (2023) WEBRip 1080p от Files-х

Reply to topic
 
Author Message

bond74 ®

Gender: Male

Longevity: 5 years 3 months

Posts: 2239

Post 02-Dec-2023 17:00

[Quote]

Это жизнь Год выпуска: 2023
Жанр: Мелодрама
Выпущено: Россия, Кинокомпания "Русское"
Режиссер: Юрий Лейзеров
В ролях: Елена Шилова, Артём Осипов, Екатерина Соломатина, Алёна Олькина, Виталий Кудрявцев, Сергей Галахов, Руслан Герман, Наталья Титаева, Филипп Третьяков
О фильме: Нина и Пётр счастливы в браке и давно мечтают стать родителями. Но из-за страха остаться бесплодной Нина никак не может забеременеть. Врач советует сначала усыновить малыша, но Пётр категорически отказывается воспитывать чужого ребёнка. Всё меняет внезапная трагедия: Нина становится жертвой изнасилования. Она не рассказывает мужу о случившемся и пытается скорее забыть страшные события. Но вскоре обнаруживает, что беременна от насильника. Узнав правду, Пётр требует сделать аборт. Однако для Нины это последний шанс родить. Тем временем за Ниной начинает ухаживать следователь Виктор, которого она оперировала после ранения. Знакомство с Виктором приведёт к открытиям, которые перевернут всю её жизнь…
Качество: WEBRip 1080p
Видео: MPEG-4 AVC, ~ 4793 Кбит/с, 1920x1080
Аудио: AC3, 2 ch, 192 Кбит/с
Продолжительность: 02:58:00
Язык: Русский
Субтитры: Русские

Скриншоты



MediaInfo

General
Unique ID : 86576621116510763482981731528701753172 (0x41220CFB4776C39D27607EBC8839B754)
Complete name : F:\Это жизнь.(2023).WEBRip.(1080р).by.Серый1779.Files-x.mkv
Format : Matroska
Format version : Version 4 / Version 2
File size : 6.34 GiB
Duration : 2 h 58 min
Overall bit rate mode : Variable
Overall bit rate : 5 086 kb/s
Encoded date : UTC 2023-12-02 09:22:54
Writing application : mkvmerge v32.0.0 ('Astral Progressions') 64-bit
Writing library : libebml v1.3.7 + libmatroska v1.5.0
Video
ID : 1
Format : AVC
Format/Info : Advanced Video Codec
Format profile : High@L4
Format settings : CABAC / 2 Ref Frames
Format settings, CABAC : Yes
Format settings, RefFrames : 2 frames
Codec ID : V_MPEG4/ISO/AVC
Duration : 2 h 58 min
Bit rate mode : Variable
Bit rate : 4 892 kb/s
Maximum bit rate : 8 000 kb/s
Width : 1 920 pixels
Height : 1 080 pixels
Display aspect ratio : 16:9
Frame rate mode : Constant
Frame rate : 25.000 FPS
Color space : YUV
Chroma subsampling : 4:2:0
Bit depth : 8 bits
Scan type : Progressive
Bits/(Pixel*Frame) : 0.094
Stream size : 6.10 GiB (96%)
Default : Yes
Forced : No
Audio
ID : 2
Format : AC-3
Format/Info : Audio Coding 3
Format settings, Endianness : Big
Codec ID : A_AC3
Duration : 2 h 58 min
Bit rate mode : Constant
Bit rate : 192 kb/s
Channel(s) : 2 channels
Channel positions : Front: L R
Sampling rate : 48.0 kHz
Frame rate : 31.250 FPS (1536 SPF)
Bit depth : 16 bits
Compression mode : Lossy
Delay relative to video : -40 ms
Stream size : 245 MiB (4%)
Service kind : Complete Main
Default : Yes
Forced : No
Text
ID : 3
Format : UTF-8
Codec ID : S_TEXT/UTF8
Codec ID/Info : UTF-8 Plain Text
Duration : 2 h 57 min
Bit rate : 109 b/s
Count of elements : 2096
Stream size : 142 KiB (0%)
Default : Yes
Forced : No

Внимание! Раздача ведётся путём добавления новых серий

Раздача ведётся путём добавления новых серий, при каждом добавлении создаётся новый торрент. Чтобы начать докачку новой серии, пользователям необходимо сделать следующее:
- Остановить скачивание.
- Удалить старый торрент у себя из клиента (старые серии удалять не надо).
- Скачать новый торрент и запустить его у себя в клиенте вместо старого, при этом указать клиенту путь в старую папку куда и должно происходить скачивание новых серий.
Ваш клиент при этом должен произвести хеширование (проверку) старой папки (если не производит сам - помогите ему сделать это), и будет докачивать только те серии которых у вас ещё нет. Старые серии при этом не удаляются, а продолжают раздаваться!
Релиз от:

Release was prepared by RG Files-x

[Profile] [PM]
Display posts:    
Reply to topic

Current time is: 21-Feb 05:33

All times are UTC + 3



You cannot post new topics in this forum
You cannot reply to topics in this forum
You cannot edit your posts in this forum
You cannot delete your posts in this forum
You cannot vote in polls in this forum
You cannot attach files in this forum
You cannot download files in this forum