Это жизнь [1-4 серии из 4] (2023) WEBRip от Files-х

Reply to topic
 
Author Message

bond74 ®

Gender: Male

Longevity: 5 years 3 months

Posts: 2239

Post 02-Dec-2023 16:57

[Quote]

Это жизнь Год выпуска: 2023
Жанр: Мелодрама
Выпущено: Россия, Кинокомпания "Русское"
Режиссер: Юрий Лейзеров
В ролях: Елена Шилова, Артём Осипов, Екатерина Соломатина, Алёна Олькина, Виталий Кудрявцев, Сергей Галахов, Руслан Герман, Наталья Титаева, Филипп Третьяков
О фильме: Нина и Пётр счастливы в браке и давно мечтают стать родителями. Но из-за страха остаться бесплодной Нина никак не может забеременеть. Врач советует сначала усыновить малыша, но Пётр категорически отказывается воспитывать чужого ребёнка. Всё меняет внезапная трагедия: Нина становится жертвой изнасилования. Она не рассказывает мужу о случившемся и пытается скорее забыть страшные события. Но вскоре обнаруживает, что беременна от насильника. Узнав правду, Пётр требует сделать аборт. Однако для Нины это последний шанс родить. Тем временем за Ниной начинает ухаживать следователь Виктор, которого она оперировала после ранения. Знакомство с Виктором приведёт к открытиям, которые перевернут всю её жизнь…
Качество: WEBRip
Видео: XviD, 1600 Кбит/с, 720x400
Аудио: AC3, 2 ch, 192 Кбит/с
Продолжительность: 02:58:00
Язык: Русский
Субтитры: Русские

Скриншоты



MediaInfo

General
Complete name : F:\Это жизнь.(2023).WEBRip.Files-x\Это жизнь.(2023).WEBRip.by.Серый1779.Files-x.avi
Format : AVI
Format/Info : Audio Video Interleave
Format profile : OpenDML
File size : 2.12 GiB
Duration : 2 h 58 min
Overall bit rate : 1 702 kb/s
Writing application : VirtualDubMod 1.5.10.3 | www.virtualdub-fr.org || (build 2550/release)
Writing library : VirtualDubMod build 2550/release
Video
ID : 0
Format : MPEG-4 Visual
Format profile : Advanced Simple@L5
Format settings : BVOP1 / Custom Matrix
Format settings, BVOP : 1
Format settings, QPel : No
Format settings, GMC : No warppoints
Format settings, Matrix : Custom
Codec ID : XVID
Codec ID/Hint : XviD
Duration : 2 h 58 min
Bit rate : 1 498 kb/s
Width : 720 pixels
Height : 400 pixels
Display aspect ratio : 16:9
Frame rate : 25.000 FPS
Color space : YUV
Chroma subsampling : 4:2:0
Bit depth : 8 bits
Scan type : Progressive
Compression mode : Lossy
Bits/(Pixel*Frame) : 0.208
Stream size : 1.87 GiB (88%)
Writing library : XviD 73
Audio
ID : 1
Format : AC-3
Format/Info : Audio Coding 3
Format settings, Endianness : Big
Codec ID : 2000
Duration : 2 h 58 min
Bit rate mode : Constant
Bit rate : 192 kb/s
Channel(s) : 2 channels
Channel positions : Front: L R
Sampling rate : 48.0 kHz
Frame rate : 31.250 FPS (1536 SPF)
Bit depth : 16 bits
Compression mode : Lossy
Stream size : 245 MiB (11%)
Alignment : Split accross interleaves
Interleave, duration : 40 ms (1.00 video frame)
Interleave, preload duration : 500 ms
Service kind : Complete Main

Внимание! Раздача ведётся путём добавления новых серий

Раздача ведётся путём добавления новых серий, при каждом добавлении создаётся новый торрент. Чтобы начать докачку новой серии, пользователям необходимо сделать следующее:
- Остановить скачивание.
- Удалить старый торрент у себя из клиента (старые серии удалять не надо).
- Скачать новый торрент и запустить его у себя в клиенте вместо старого, при этом указать клиенту путь в старую папку куда и должно происходить скачивание новых серий.
Ваш клиент при этом должен произвести хеширование (проверку) старой папки (если не производит сам - помогите ему сделать это), и будет докачивать только те серии которых у вас ещё нет. Старые серии при этом не удаляются, а продолжают раздаваться!
Релиз от:

Release was prepared by RG Files-x

[Profile] [PM]
Display posts:    
Reply to topic

Current time is: 21-Feb 04:15

All times are UTC + 3



You cannot post new topics in this forum
You cannot reply to topics in this forum
You cannot edit your posts in this forum
You cannot delete your posts in this forum
You cannot vote in polls in this forum
You cannot attach files in this forum
You cannot download files in this forum