Склифосовский / Склиф [11 сезон: 1-16 серии из 16] (2023) WEBRip 720p от Files-х

Reply to topic
 
Author Message

patriot67 ®

Gender: Male

Longevity: 4 years 3 months

Posts: 213

Post 02-Dec-2023 19:35

[Quote]

Склифосовский / Склиф Год выпуска: 2023
Жанр: Драма, мелодрама, медицина
Выпущено: Россия, Кинокомпания "Русское"
Режиссер: Юлия Краснова
В ролях: Максим Аверин, Мария Куликова, Андрей Ильин (I), Елена Яковлева, Мария Порошина, Константин Юшкевич, Анна Якунина, Владимир Жеребцов, Екатерина Травова, Евгения Лютая, Екатерина Воронина (II), Глеб Подгородинский, Евгения Дмитриева, Александр Сирин, Игорь Гордин, Ирина Основина, Ася Калинина, Олеся Кыдык, Мария Рыщенкова, Нина Усатова, Олег Борисов (II), Александр Румянцев (II), Александр Коротков (II), Филипп Горенштейн, Галина Безрук, Наталья Хорохорина, Лариса Бурмистрова, Владимир Долматовский, Джульетта Геринг, Павел Алещенко, Сергей Пиотровский, Денис Карасёв, Любовь Томилова, Мария Антипп, Савелий Кудряшов, Ольга Богомазова, Сергей Ходьков, Владимир Тяптушки
О фильме: В Склифе снова не все спокойно! В главный институт скорой помощи приходит новый главврач и устраивает всему отделению внеплановую аттестацию. Завотделением Ирина Павлова "теряет" сразу трёх врачей, но находит новых: супруги Пастуховы возвращаются в Москву. Марина Нарочинская получает в наследство дом, но это оборачивается опасным приключением для Олега Брагина. Ирина Фёдоровна попадает под горячую руку нового начальника и её увольняют. Теперь она - няня Брагиных. Нина вьёт гнездо для большой семьи, но вдруг на пороге появляется гость из прошлого. Костик, которого все теперь зовут не иначе, как Константин Германович, утопает в административных делах и порой забывает про семью. В отделении объявлен карантин. Кривицкий, как и многие пациенты, заболевает неизвестным вирусом.
Качество: WEBRip 720p
Видео: MPEG-4 AVC, ~ 1759 Кбит/с, 1280x720, 25 кадр/с
Аудио: AC3, 2 ch, 192 Кбит/с
Продолжительность: 16 x ~ 00:52:00
Перевод: Не требуется
Cубтитры: Нет

Скриншоты


MediaInfo

Общее
Уникальный идентификатор : 239687706488821834969857682738495068620 (0xB4522C51C725F39DA323608601BF99CC)
Полное имя : C:\ШОУ\Склифосовский .s11.2023.WEB-DL 720p.BLACKTIR.Files-x\03. Склифосовский .s11.2023.WEB-DL 720p.BLACKTIR.Files-x.mkv
Формат : Matroska
Версия формата : Version 2
Размер файла : 740 Мбайт
Продолжительность : 51 м. 57 с.
Режим общего битрейта : Переменный
Общий поток : 1 991 Кбит/сек
Частота кадров : 25,000 кадров/сек
Дата кодирования : 2023-12-01 12:26:26 UTC
Программа кодирования : mkvmerge v7.8.0 ('River Man') 32bit built on Apr 3 2015 12:11:22
Библиотека кодирования : libebml v1.3.1 + libmatroska v1.4.2
Видео
Идентификатор : 1
Формат : AVC
Формат/Информация : Advanced Video Codec
Профиль формата : High@L3.1
Настройки формата : CABAC / 2 Ref Frames
Параметр CABAC формата : Да
Параметр RefFrames формата : 2 кадра
Идентификатор кодека : V_MPEG4/ISO/AVC
Продолжительность : 51 м. 57 с.
Вид битрейта : Переменный
Битрейт : 1 759 Кбит/сек
Максимальный битрейт : 2 400 Кбит/сек
Ширина : 1 280 пикселей
Высота : 720 пикселей
Соотношение сторон : 16:9
Режим частоты кадров : Постоянный
Частота кадров : 25,000 кадров/сек
Цветовое пространство : YUV
Субдискретизация насыщенности : 4:2:0
Битовая глубина : 8 бит
Тип развёртки : Прогрессивная
Бит/(Пиксели*Кадры) : 0.076
Размер потока : 654 Мбайт (88%)
Default : Да
Forced : Нет
Аудио
Идентификатор : 2
Формат : AC-3
Формат/Информация : Audio Coding 3
Коммерческое название : Dolby Digital
Идентификатор кодека : A_AC3
Продолжительность : 51 м. 57 с.
Вид битрейта : Постоянный
Битрейт : 192 Кбит/сек
Каналы : 2 канала
Channel layout : L R
Частота : 48,0 КГц
Частота кадров : 31,250 кадров/сек (1536 SPF)
Метод сжатия : С потерями
Задержка видео : -33 мс.
Размер потока : 71,3 Мбайт (10%)
Service kind : Complete Main
Default : Да
Forced : Нет

Внимание! Раздача ведётся путём добавления новых серий

Раздача ведётся путём добавления новых серий, при каждом добавлении создаётся новый торрент. Чтобы начать докачку новой серии, пользователям необходимо сделать следующее:
- Остановить скачивание.
- Удалить старый торрент у себя из клиента (старые серии удалять не надо).
- Скачать новый торрент и запустить его у себя в клиенте вместо старого, при этом указать клиенту путь в старую папку куда и должно происходить скачивание новых серий.
Ваш клиент при этом должен произвести хеширование (проверку) старой папки (если не производит сам - помогите ему сделать это), и будет докачивать только те серии которых у вас ещё нет. Старые серии при этом не удаляются, а продолжают раздаваться!
Релиз от:

Release was prepared by RG Files-x

[Profile] [PM]
Display posts:    
Reply to topic

Current time is: 21-Feb 04:38

All times are UTC + 3



You cannot post new topics in this forum
You cannot reply to topics in this forum
You cannot edit your posts in this forum
You cannot delete your posts in this forum
You cannot vote in polls in this forum
You cannot attach files in this forum
You cannot download files in this forum