Слепой метод [2 сезон: 1-4 серии из 4] (2023) WEB-DL 1080p от Files-x

Reply to topic
 
Author Message

bond74 ®

Gender: Male

Longevity: 5 years 3 months

Posts: 2239

Post 03-Dec-2023 12:07

[Quote]

Слепой метод
Год выпуска: 2023
Жанр: Детектив
Выпущено: Россия, Кинокомпания "ЭФ Дистрибьюшн"
Режиссер: Сергей Борчуков
В ролях: Дмитрий Исаев, Евгения Вайс, Максим Виноградов, Янина Соколовская, Владимир Бадов, Глафира Тарханова, Максим Жаров, Максим Бойцов, Ромади Кагита, Сергей Шароватов, Полина Кутихина, Сергей Шипилов, Александр Быков (II), Владислав Ким, Андрей Аверков, Иван Юров, Анна Емшанова, Александр Ясень, Наталья Логинова, Александр Боковиков, Евгений Штырбул, Елена Блинникова, Дмитрий Морозов
О фильме: Отставной офицер полиции Анатолий Акимов чудом выжил после покушения и лишился зрения. Однако на этом его карьера следователя не заканчивается – неожиданно, с появлением в его доме домработницы Ксении Воронцовой, он снова начинает заниматься поиском преступников вместе с ней. В новых сериях детективной парочке предстоит разгадать два громких дела – убийства бизнесмена и убийства организатора скандального частного музея, посвященного разводам и изменщикам. Но сможет ли Акимов найти своего главного врага – того, кто организовал на него покушение?

Качество: WEB-DL 1080p
Видео: MPEG-4 AVC, ~ 5120 Кбит/с, 1920x1080, 25 кадр/с
Аудио: AC3, 2 ch, 192 Кбит/с
Продолжительность: 4 х ~ 00:44:11
Перевод: Не требуется [Русский]
Cубтитры: Нет

Скриншоты




MediaInfo

Общее
Уникальный идентификатор : 200766860946672744779692167061626810388 (0x970A4A7AA2E94A6ABC4DCA36C7C9F014)
Полное имя : C:\ШОУ\Слепой метод.S02.2023.WEB-DL 1080p.Files-x\03 Слепой метод.S02.2023.WEB-DL 1080p.Files-x.mkv
Формат : Matroska
Версия формата : Version 4
Размер файла : 1,64 Гбайт
Продолжительность : 44 м. 16 с.
Общий поток : 5 310 Кбит/сек
Частота кадров : 25,000 кадров/сек
Дата кодирования : 2023-12-02 23:00:09 UTC
Программа кодирования : mkvmerge v7.8.0 ('River Man') 32bit built on Apr 3 2015 12:11:22
Библиотека кодирования : libebml v1.3.1 + libmatroska v1.4.2
Видео
Идентификатор : 1
Формат : AVC
Формат/Информация : Advanced Video Codec
Профиль формата : High@L4
Настройки формата : CABAC / 4 Ref Frames
Параметр CABAC формата : Да
Параметр RefFrames формата : 4 кадра
Идентификатор кодека : V_MPEG4/ISO/AVC
Продолжительность : 44 м. 16 с.
Битрейт : 5 120 Кбит/сек
Ширина : 1 920 пикселей
Высота : 1 080 пикселей
Соотношение сторон : 16:9
Режим частоты кадров : Постоянный
Частота кадров : 25,000 кадров/сек
Цветовое пространство : YUV
Субдискретизация насыщенности : 4:2:0
Битовая глубина : 8 бит
Тип развёртки : Прогрессивная
Бит/(Пиксели*Кадры) : 0.099
Размер потока : 1,58 Гбайт (96%)
Библиотека кодирования : x264 core 152 r2854 e9a5903
Настройки программы : cabac=1 / ref=3 / deblock=1:0:0 / analyse=0x3:0x113 / me=hex / subme=7 / psy=1 / psy_rd=1.00:0.00 / mixed_ref=1 / me_range=16 / chroma_me=1 / trellis=1 / 8x8dct=1 / cqm=0 / deadzone=21,11 / fast_pskip=1 / chroma_qp_offset=-2 / threads=34 / lookahead_threads=5 / sliced_threads=0 / nr=0 / decimate=1 / interlaced=0 / bluray_compat=0 / constrained_intra=0 / bframes=6 / b_pyramid=2 / b_adapt=1 / b_bias=0 / direct=1 / weightb=1 / open_gop=0 / weightp=2 / keyint=50 / keyint_min=26 / scenecut=0 / intra_refresh=0 / rc_lookahead=40 / rc=2pass / mbtree=1 / bitrate=5120 / ratetol=1.0 / qcomp=0.60 / qpmin=0 / qpmax=69 / qpstep=4 / cplxblur=20.0 / qblur=0.5 / vbv_maxrate=7680 / vbv_bufsize=20480 / nal_hrd=none / filler=0 / ip_ratio=1.40 / aq=1:1.00
Default : Да
Forced : Нет
Аудио
Идентификатор : 2
Формат : AC-3
Формат/Информация : Audio Coding 3
Коммерческое название : Dolby Digital
Идентификатор кодека : A_AC3
Продолжительность : 44 м. 16 с.
Вид битрейта : Постоянный
Битрейт : 192 Кбит/сек
Каналы : 2 канала
Channel layout : L R
Частота : 48,0 КГц
Частота кадров : 31,250 кадров/сек (1536 SPF)
Метод сжатия : С потерями
Размер потока : 60,8 Мбайт (4%)
Service kind : Complete Main
Default : Да
Forced : Нет

Внимание! Раздача ведётся путём добавления новых серий

Раздача ведётся путём добавления новых серий, при каждом добавлении создаётся новый торрент. Чтобы начать докачку новой серии, пользователям необходимо сделать следующее:
- Остановить скачивание.
- Удалить старый торрент у себя из клиента (старые серии удалять не надо).
- Скачать новый торрент и запустить его у себя в клиенте вместо старого, при этом указать клиенту путь в старую папку куда и должно происходить скачивание новых серий.
Ваш клиент при этом должен произвести хеширование (проверку) старой папки (если не производит сам - помогите ему сделать это), и будет докачивать только те серии которых у вас ещё нет. Старые серии при этом не удаляются, а продолжают раздаваться!
Если вы уже удалили старые серии, то предотвратить повторную закачку старых серий можно, отжав галочку в соответствующих местах при запуске нового торрента. По возможности, желательно не удалять старые серии как можно дольше, чтобы релизер не столько продолжал раздавать старые серии, а смог сконцентрироваться на новых.
Релиз от:

Release was prepared by RG Files-x

[Profile] [PM]
Display posts:    
Reply to topic

Current time is: 21-Feb 04:56

All times are UTC + 3



You cannot post new topics in this forum
You cannot reply to topics in this forum
You cannot edit your posts in this forum
You cannot delete your posts in this forum
You cannot vote in polls in this forum
You cannot attach files in this forum
You cannot download files in this forum