Слепой метод [2 сезон: 1-4 серии из 4] (2023) WEB-DLRip от Files-x

Reply to topic
 
Author Message

bond74 ®

Gender: Male

Longevity: 5 years 3 months

Posts: 2239

Post 03-Dec-2023 13:49

[Quote]

Слепой метод
Год выпуска: 2023
Жанр: Детектив
Выпущено: Россия, Кинокомпания "ЭФ Дистрибьюшн"
Режиссер: Сергей Борчуков
В ролях: Дмитрий Исаев, Евгения Вайс, Максим Виноградов, Янина Соколовская, Владимир Бадов, Глафира Тарханова, Максим Жаров, Максим Бойцов, Ромади Кагита, Сергей Шароватов, Полина Кутихина, Сергей Шипилов, Александр Быков (II), Владислав Ким, Андрей Аверков, Иван Юров, Анна Емшанова, Александр Ясень, Наталья Логинова, Александр Боковиков, Евгений Штырбул, Елена Блинникова, Дмитрий Морозов
О фильме: Отставной офицер полиции Анатолий Акимов чудом выжил после покушения и лишился зрения. Однако на этом его карьера следователя не заканчивается – неожиданно, с появлением в его доме домработницы Ксении Воронцовой, он снова начинает заниматься поиском преступников вместе с ней. В новых сериях детективной парочке предстоит разгадать два громких дела – убийства бизнесмена и убийства организатора скандального частного музея, посвященного разводам и изменщикам. Но сможет ли Акимов найти своего главного врага – того, кто организовал на него покушение?

Качество: WEB-DLRip
Видео: XviD, ~ 1600 Кбит/с, 720x400
Аудио: AC3, 2 ch, 192 Кбит/с
Продолжительность: 4 х ~ 00:44:11
Перевод: Не требуется [Русский]
Cубтитры: Нет

Скриншоты




MediaInfo

Общее
Полное имя : D:\Слепой метод.2022-2023.WEB-DLRip.Files-x\S02\03. Слепой метод.S02.2023.WEB-DLRip.Files-x.avi
Формат : AVI
Формат/Информация : Audio Video Interleave
Настройки формата : BitmapInfoHeader / WaveFormatEx
Размер файла : 564 Мбайт
Продолжительность : 44 м. 16 с.
Общий поток : 1 782 Кбит/сек
Частота кадров : 25,000 кадров/сек
Программа кодирования : VirtualDubMod 1.5.10.3 | www.virtualdub-fr.org || (build 2550/release)
Библиотека кодирования : VirtualDubMod build 2550/release
Видео
Идентификатор : 0
Формат : MPEG-4 Visual
Профиль формата : Advanced Simple@L5
Настройки формата : BVOP1 / Custom Matrix
Параметр BVOP формата : 1
Параметр QPel формата : Нет
Параметр GMC формата : Без точки перехода
Параметр матрицы формата : Выборочная
Идентификатор кодека : XVID
Идентификатор кодека/Подсказка : XviD
Продолжительность : 44 м. 16 с.
Битрейт : 1 580 Кбит/сек
Ширина : 720 пикселей
Высота : 400 пикселей
Соотношение сторон : 16:9
Частота кадров : 25,000 кадров/сек
Цветовое пространство : YUV
Субдискретизация насыщенности : 4:2:0
Битовая глубина : 8 бит
Тип развёртки : Прогрессивная
Метод сжатия : С потерями
Бит/(Пиксели*Кадры) : 0.219
Размер потока : 500 Мбайт (89%)
Библиотека кодирования : XviD 73
Аудио
Идентификатор : 1
Формат : AC-3
Формат/Информация : Audio Coding 3
Коммерческое название : Dolby Digital
Идентификатор кодека : 2000
Продолжительность : 44 м. 16 с.
Вид битрейта : Постоянный
Битрейт : 192 Кбит/сек
Каналы : 2 канала
Channel layout : L R
Частота : 48,0 КГц
Частота кадров : 31,250 кадров/сек (1536 SPF)
Метод сжатия : С потерями
Размер потока : 60,8 Мбайт (11%)
Выравнивание : Разделение по промежуткам
Продолжительность промежутка : 40 мс. (1,00 видеокадр)
Время предзагрузки промежутка : 500 мс.
Service kind : Complete Main

Внимание! Раздача ведётся путём добавления новых серий

Раздача ведётся путём добавления новых серий, при каждом добавлении создаётся новый торрент. Чтобы начать докачку новой серии, пользователям необходимо сделать следующее:
- Остановить скачивание.
- Удалить старый торрент у себя из клиента (старые серии удалять не надо).
- Скачать новый торрент и запустить его у себя в клиенте вместо старого, при этом указать клиенту путь в старую папку куда и должно происходить скачивание новых серий.
Ваш клиент при этом должен произвести хеширование (проверку) старой папки (если не производит сам - помогите ему сделать это), и будет докачивать только те серии которых у вас ещё нет. Старые серии при этом не удаляются, а продолжают раздаваться!
Если вы уже удалили старые серии, то предотвратить повторную закачку старых серий можно, отжав галочку в соответствующих местах при запуске нового торрента. По возможности, желательно не удалять старые серии как можно дольше, чтобы релизер не столько продолжал раздавать старые серии, а смог сконцентрироваться на новых.
Релиз от:

Release was prepared by RG Files-x

[Profile] [PM]
Display posts:    
Reply to topic

Current time is: 21-Feb 04:31

All times are UTC + 3



You cannot post new topics in this forum
You cannot reply to topics in this forum
You cannot edit your posts in this forum
You cannot delete your posts in this forum
You cannot vote in polls in this forum
You cannot attach files in this forum
You cannot download files in this forum